<?xml version="1.0" standalone="no"?>
<!DOCTYPE svg PUBLIC "-//W3C//DTD SVG 1.1//EN" "http://www.w3.org/Graphics/SVG/1.1/DTD/svg11.dtd" >
<svg xmlns="http://www.w3.org/2000/svg">
<metadata>
This is a custom SVG webfont generated by Font Squirrel.
Copyright   : Copyright  2000 2002 Adobe Systems Incorporated All Rights Reserved US Patent Des pending
Designer    : Robert Slimbach and Carol Twombly with Fred Brady and Christopher Slye
Foundry URL : httpwwwadobecomtype
</metadata>
<defs>
<font id="MyriadProSemiCondensed" horiz-adv-x="972" >
<font-face units-per-em="2048" ascent="1536" descent="-512" />
<missing-glyph horiz-adv-x="401" />
<glyph unicode=" "  horiz-adv-x="401" />
<glyph unicode="&#x09;" horiz-adv-x="401" />
<glyph unicode="&#xa0;" horiz-adv-x="401" />
<glyph unicode="!" horiz-adv-x="454" d="M113 102.5q0 53.5 32.5 88t81.5 34.5q51 0 83 -33.5t32 -89.5q0 -53 -30.5 -87.5t-84.5 -34.5h-2q-49 0 -80.5 34.5t-31.5 88zM133 1380h189l-27 -987h-135z" />
<glyph unicode="&#x22;" horiz-adv-x="673" d="M102 1411h170l-32 -487h-105zM401 1411h170l-32 -487h-105z" />
<glyph unicode="#" horiz-adv-x="950" d="M66 403v117h176l39 301h-168v115h184l51 395h117l-53 -395h198l52 395h116l-51 -395h156v-115h-172l-39 -301h166v-114h-185l-51 -406h-119l54 406h-197l-51 -406h-119l53 403h-157zM358 520h197l37 301h-197z" />
<glyph unicode="$" d="M125 115l47 133q123 -82 266 -82q102 0 165 57.5t63 145.5q0 84 -52.5 142t-162.5 107q-152 68 -232 148t-80 203q0 127 79 215t206 110v203h125v-194q135 -2 244 -66l-48 -131q-109 66 -233 65q-100 0 -151.5 -53t-51.5 -125q0 -78 52.5 -128t183.5 -109 q150 -68 220.5 -156t70.5 -215q0 -131 -80 -226.5t-219 -119.5v-213h-125v205q-170 4 -287 84z" />
<glyph unicode="%" horiz-adv-x="1531" d="M61 938q0 193 85 303.5t216 110.5h3q131 0 209.5 -105.5t78.5 -292.5q0 -201 -86 -308t-213 -107q-125 0 -208 105.5t-85 293.5zM197 944q-2 -127 40 -214t121 -87q82 0 121 85t39 218q0 131 -38 216t-122 85h-2q-78 0 -118.5 -88t-40.5 -215zM328 -27l762 1383h108 l-760 -1383h-110zM879 387q0 190 85 301t214 111h2q131 0 209.5 -105.5t78.5 -292.5q0 -201 -85 -308t-212 -107q-125 0 -207.5 105.5t-84.5 295.5zM1014 393q-2 -127 41 -215t119 -88q82 0 120.5 85t38.5 220q0 129 -38 214t-121 85h-3q-76 0 -116.5 -87t-40.5 -214z" />
<glyph unicode="&#x26;" horiz-adv-x="1169" d="M61 365q0 248 254 401v6q-113 150 -112 295q0 135 90 234.5t242 99.5q123 0 204.5 -78t81.5 -211q0 -111 -65.5 -199t-216.5 -172v-6q25 -31 141.5 -176t171.5 -211q82 139 119 402h155q-53 -342 -184 -506q29 -33 98.5 -112t114.5 -132h-203q-14 16 -52 58t-66 73 q-154 -152 -371 -151q-186 0 -294 112.5t-108 272.5zM229 387q0 -119 73 -197.5t190 -78.5h2q160 0 258 122q-287 344 -361 437q-162 -115 -162 -283zM362 1081q0 -119 97 -250q106 66 158.5 128.5t52.5 142.5q0 72 -37 125t-111 53h-2q-74 0 -116 -57.5t-42 -141.5z" />
<glyph unicode="'" horiz-adv-x="374" d="M102 1411h170l-32 -487h-105z" />
<glyph unicode="(" horiz-adv-x="563" d="M129 586q2 496 254 835h135q-244 -344 -244 -837q0 -477 244 -830h-135q-254 343 -254 832z" />
<glyph unicode=")" horiz-adv-x="563" d="M45 -246q244 350 244 836q0 479 -244 831h135q254 -338 254 -833q-2 -489 -254 -834h-135z" />
<glyph unicode="*" horiz-adv-x="823" d="M57 981v135l291 -37v4l-184 248l119 68l127 -279h4l121 281l120 -68l-190 -252v-4l301 39v-135l-299 37l-2 -6l192 -242l-125 -72l-122 283l-4 -2l-130 -283l-112 72l188 248l-2 4z" />
<glyph unicode="+" horiz-adv-x="1220" d="M82 487v119h465v484h127v-484h465v-119h-465v-487h-127v487h-465z" />
<glyph unicode="," horiz-adv-x="415" d="M35 -254q86 227 121 485l194 21q-35 -127 -93 -273.5t-101 -218.5z" />
<glyph unicode="-" horiz-adv-x="610" d="M61 483v129h488v-129h-488z" />
<glyph unicode="." horiz-adv-x="415" d="M104 104q0 55 33 91t84 36q53 0 85 -34.5t32 -92.5q0 -55 -32 -89.5t-85 -34.5h-2q-49 0 -82 35.5t-33 88.5z" />
<glyph unicode="/" horiz-adv-x="663" d="M4 -82l533 1483h133l-535 -1483h-131z" />
<glyph unicode="0" d="M68 662q0 328 116.5 509t313.5 181q195 0 301 -178.5t106 -497.5q0 -340 -112.5 -518t-313.5 -178h-2q-186 0 -296.5 178t-112.5 504zM242 670q-4 -254 61.5 -402.5t181.5 -148.5h2q121 0 182.5 146.5t61.5 404.5q0 254 -60.5 398t-183.5 144q-115 0 -180 -147t-65 -395z " />
<glyph unicode="1" d="M188 1174l289 157h146v-1331h-168v1165h-4l-228 -125z" />
<glyph unicode="2" d="M84 0v106l133 142q240 248 345.5 401.5t105.5 302.5q0 115 -57.5 184.5t-182.5 69.5t-256 -100l-53 123q145 123 342 123q186 0 282.5 -111t96.5 -270q0 -172 -102.5 -333t-315.5 -382l-100 -106v-5h548v-145h-786z" />
<glyph unicode="3" d="M78 61l43 134q127 -74 264 -74q141 0 212 76.5t69 183.5q-2 129 -93.5 198.5t-228.5 69.5h-80v131h80q102 0 190.5 59.5t88.5 168.5q0 92 -54.5 147t-162.5 55q-121 0 -236 -80l-43 127q127 94 315 95q170 0 263.5 -91.5t93.5 -224.5q0 -102 -60.5 -185t-173.5 -126v-4 q121 -27 200 -117t79 -227q0 -168 -121 -282.5t-334 -114.5q-188 -1 -311 81z" />
<glyph unicode="4" d="M33 365v114l545 852h182v-829h174v-137h-174v-365h-162v365h-565zM205 502h393v424q0 74 8 225h-6q-55 -115 -113 -213l-282 -432v-4z" />
<glyph unicode="5" d="M76 55l43 133q113 -68 256 -67q123 0 209 80t86 215q0 139 -91.5 217t-267.5 78q-98 0 -159 -13l86 633h587v-147h-463l-51 -344q37 6 90 6q158 0 277 -82q166 -111 166 -330q0 -197 -132 -325.5t-335 -128.5q-188 -1 -301 75z" />
<glyph unicode="6" d="M66 539q0 371 208 600q152 164 396 200q63 10 121 11l2 -144q-63 0 -125 -10q-186 -35 -294 -166t-132 -307h6q104 145 293 145q164 0 266 -115.5t102 -308t-111.5 -328.5t-297.5 -136q-199 0 -316.5 153.5t-117.5 405.5zM238 500q2 -178 71.5 -282.5t190.5 -104.5h2 q104 0 167.5 85t63.5 236q0 143 -66.5 223t-179.5 80q-72 0 -135 -42t-98 -115q-16 -37 -16 -80z" />
<glyph unicode="7" d="M104 1186v145h781v-110l-535 -1221h-176l531 1182v4h-601z" />
<glyph unicode="8" d="M72 334q0 244 250 364l-3 7q-98 51 -149 130.5t-51 170.5q0 154 109.5 250t271.5 96h2q168 0 262 -95.5t94 -226.5q0 -205 -207 -313v-6q250 -115 250 -351q0 -168 -118.5 -274t-301.5 -106q-188 0 -298.5 103.5t-110.5 250.5zM246 358q-4 -106 62.5 -179t176.5 -73h2 q106 0 173 65t67 173q0 113 -66.5 181.5t-195.5 115.5q-104 -39 -161.5 -114t-57.5 -169zM285 1018q0 -176 227 -250q82 35 131 97.5t49 146.5q0 90 -50 152.5t-150 62.5h-3q-94 0 -149 -59.5t-55 -149.5z" />
<glyph unicode="9" d="M76 887q0 190 117.5 327.5t302.5 137.5q190 0 298.5 -152.5t108.5 -402.5q0 -393 -213 -621q-145 -156 -364 -184q-92 -12 -148 -10v143q57 -4 131 8q150 23 250 121q135 129 170 360h-4q-111 -133 -287 -133q-162 0 -262 115t-100 291zM248 897q0 -131 63.5 -208 t169.5 -77q76 0 138.5 37t95.5 96q14 33 14 72q0 186 -62.5 294t-183.5 108h-2q-100 0 -166.5 -87.5t-66.5 -234.5z" />
<glyph unicode=":" horiz-adv-x="415" d="M106 104.5q0 53.5 33 89t84 35.5t83 -34.5t32 -90t-32 -90t-85 -34.5h-2q-49 0 -81 35.5t-32 89zM106 835.5q0 53.5 33 89.5t84 36t83 -35t32 -90.5t-32 -90t-85 -34.5h-2q-49 0 -81 35.5t-32 89z" />
<glyph unicode=";" horiz-adv-x="415" d="M35 -254q80 227 121 485l192 21q-35 -127 -93 -273.5t-101 -220.5zM123 835.5q0 53.5 32.5 89.5t84 36t83 -35t31.5 -90.5t-31.5 -90t-84.5 -34.5h-2q-49 0 -81 35.5t-32 89z" />
<glyph unicode="&#x3c;" horiz-adv-x="1220" d="M135 492v106l950 492v-140l-798 -403v-4l798 -404v-139z" />
<glyph unicode="=" horiz-adv-x="1220" d="M82 293v119h1057v-119h-1057zM82 690v119h1057v-119h-1057z" />
<glyph unicode="&#x3e;" horiz-adv-x="1220" d="M135 0v139l811 404v4l-811 403v140l950 -486v-117z" />
<glyph unicode="?" horiz-adv-x="772" d="M98 1331q106 74 266 74t243 -86t83 -211q0 -66 -27.5 -134.5t-55 -108.5t-87.5 -117q-115 -152 -102 -314l2 -47h-154l-4 47q-23 182 115 365q72 94 103.5 157.5t31.5 130.5q0 82 -47 127.5t-135 45.5q-111 0 -187 -56zM223 102q0 55 33 90t84 35t83 -34.5t32 -90.5 q0 -53 -32 -87.5t-85 -34.5h-2q-49 0 -81 34.5t-32 87.5z" />
<glyph unicode="@" horiz-adv-x="1419" d="M82 414q0 332 201.5 566t517.5 234q246 0 395.5 -157.5t149.5 -403.5q0 -240 -100.5 -380t-248.5 -140q-66 0 -106.5 44t-36.5 132h-6q-100 -176 -273 -176q-86 0 -144 66.5t-58 181.5q0 195 132 345.5t339 150.5q115 0 198 -39l-73 -383q-45 -225 55 -226 q82 -2 147.5 111t65.5 291q0 225 -118 359t-335 134q-248 0 -419.5 -196.5t-171.5 -507.5q0 -252 136 -396.5t357 -144.5q166 0 293 72l31 -84q-147 -80 -346 -80q-246 0 -414 169t-168 458zM502 387q0 -68 31.5 -107.5t89.5 -39.5q78 0 146.5 85t86.5 183l49 252 q-37 14 -90 14q-129 0 -221 -116.5t-92 -270.5z" />
<glyph unicode="A" horiz-adv-x="1144" d="M49 0l424 1380h203l422 -1380h-180l-132 428h-434l-127 -428h-176zM385 563h371l-119 383q-29 102 -66 271h-6q-37 -172 -63 -269z" />
<glyph unicode="B" horiz-adv-x="1032" d="M145 4v1358q133 29 297 29q242 0 357 -99q109 -88 108 -243q0 -102 -60.5 -183.5t-166.5 -120.5v-6q117 -29 196.5 -118t79.5 -228q0 -168 -112 -274q-129 -129 -443 -129q-127 0 -256 14zM317 133q41 -8 129 -8q145 0 237.5 66.5t92.5 203.5q0 133 -94 202t-240 69h-125 v-533zM317 795h136q127 0 203.5 66.5t76.5 170.5q0 111 -72.5 168t-205.5 57q-84 0 -138 -12v-450z" />
<glyph unicode="C" horiz-adv-x="1060" d="M72 676q0 340 183 531.5t466 191.5q184 0 280 -53l-40 -142q-98 49 -236 49q-211 0 -342 -146t-131 -421q0 -268 125 -412.5t342 -144.5q145 0 248 49l32 -139q-106 -57 -313 -57q-274 0 -444 181t-170 513z" />
<glyph unicode="D" horiz-adv-x="1226" d="M145 4v1358q147 29 328 29q326 0 490 -152q193 -172 192 -514q0 -358 -188 -551q-180 -184 -543 -184q-142 0 -279 14zM317 137q39 -6 144 -6q246 0 380 146.5t134 441.5q2 254 -122 394t-368 140q-100 0 -168 -14v-1102z" />
<glyph unicode="E" horiz-adv-x="921" d="M145 0v1380h680v-145h-508v-442h478v-144h-478v-504h537v-145h-709z" />
<glyph unicode="F" horiz-adv-x="909" d="M145 0v1380h678v-145h-506v-467h469v-143h-469v-625h-172z" />
<glyph unicode="G" horiz-adv-x="1193" d="M72 678q2 334 188 525.5t490 191.5q176 0 301 -56l-41 -143q-113 51 -262 51q-223 0 -359.5 -144.5t-136.5 -414.5q0 -272 128 -415.5t343 -143.5q133 0 195 31v424h-248v139h415v-670q-174 -68 -370 -67q-291 0 -459 168q-184 184 -184 524z" />
<glyph unicode="H" horiz-adv-x="1220" d="M145 0v1380h172v-581h584v581h172v-1380h-172v647h-584v-647h-172z" />
<glyph unicode="I" horiz-adv-x="464" d="M145 0v1380h172v-1380h-172z" />
<glyph unicode="J" horiz-adv-x="692" d="M8 6l23 141q55 -20 129 -20q117 0 173 68.5t56 250.5v934h172v-944q0 -248 -102.5 -352t-286.5 -104q-92 -1 -164 26z" />
<glyph unicode="K" horiz-adv-x="1026" d="M145 0v1380h172v-663h7q43 68 102 153l371 510h207l-451 -587l481 -793h-198l-402 674l-117 -146v-528h-172z" />
<glyph unicode="L" horiz-adv-x="888" d="M145 0v1380h172v-1235h529v-145h-701z" />
<glyph unicode="M" horiz-adv-x="1519" d="M111 0l92 1380h211l213 -657q90 -291 131 -469h4q41 176 133 469l219 657h213l84 -1380h-168l-31 602q-21 379 -20 550v30h-6q-68 -250 -154 -512l-223 -662h-123l-207 645q-96 307 -143 529h-6q-8 -307 -25 -594l-33 -588h-161z" />
<glyph unicode="N" horiz-adv-x="1228" d="M145 0v1380h183l385 -682q137 -244 225 -458l4 2q-18 248 -18 585v553h159v-1380h-170l-387 688q-154 279 -229 465l-6 -2q14 -209 14 -594v-557h-160z" />
<glyph unicode="O" horiz-adv-x="1261" d="M72 682q0 328 158.5 523.5t410.5 195.5q250 0 398.5 -191.5t148.5 -507.5q0 -348 -160 -535t-405 -187h-2q-246 0 -397.5 191.5t-151.5 510.5zM252 686q0 -229 99.5 -396t277.5 -167h2q180 0 278.5 166t98.5 407q0 225 -97.5 393t-279.5 168q-184 0 -281.5 -167.5 t-97.5 -403.5z" />
<glyph unicode="P" horiz-adv-x="1007" d="M145 0v1364q147 27 310 27q242 0 362 -111q115 -104 115 -288.5t-101 -291.5q-131 -154 -393 -153q-78 0 -121 10v-557h-172zM317 698q39 -12 123 -12q150 0 235 77t85 218q0 129 -78 200.5t-221 71.5q-86 0 -144 -12v-543z" />
<glyph unicode="Q" horiz-adv-x="1261" d="M72 680q0 332 158.5 526.5t412.5 194.5q248 0 396.5 -191.5t148.5 -507.5q0 -262 -93.5 -430t-250.5 -227v-8q182 -51 360 -90l-53 -144q-184 53 -465 156q-53 20 -74 21q-236 6 -388 189t-152 511zM252 684q0 -231 99.5 -396t277.5 -165h2q178 0 277.5 166t99.5 407 q0 227 -96.5 394t-276.5 167q-125 0 -215 -85t-129 -211.5t-39 -276.5z" />
<glyph unicode="R" horiz-adv-x="1024" d="M145 0v1362q131 29 310 29q256 0 372 -109q104 -98 105 -264q0 -129 -67.5 -220t-180.5 -134v-5q145 -49 197 -288q66 -307 98 -371h-176q-29 53 -86 334q-29 143 -88.5 203.5t-173.5 62.5h-138v-600h-172zM317 731h148q135 0 215 73t80 193q0 129 -77 193.5t-216 64.5 q-102 0 -150 -14v-510z" />
<glyph unicode="S" horiz-adv-x="927" d="M78 61l43 146q123 -80 282 -80q127 0 200 64.5t73 170.5q0 92 -56.5 156t-181.5 121q-334 135 -334 389q0 162 117 266.5t305 104.5q168 0 271 -62l-45 -143q-98 59 -232 59q-121 0 -182.5 -61.5t-61.5 -140.5q0 -94 57.5 -151.5t196.5 -119.5q164 -78 241 -173t77 -232 q0 -172 -120 -282.5t-335 -110.5q-88 0 -177 23t-138 56z" />
<glyph unicode="T" horiz-adv-x="929" d="M8 1233v147h914v-147h-371v-1233h-172v1233h-371z" />
<glyph unicode="U" horiz-adv-x="1208" d="M145 535v845h172v-850q0 -209 77 -308t206 -99q293 0 293 407v850h172v-833q0 -291 -128 -429t-343 -138q-209 0 -329 133t-120 422z" />
<glyph unicode="V" horiz-adv-x="1058" d="M14 1380h187l190 -669q88 -309 133 -521h4q41 201 138 519l202 671h185l-441 -1380h-186z" />
<glyph unicode="W" horiz-adv-x="1613" d="M35 1380h180l152 -688q53 -248 90 -483h6q16 113 102 485l168 686h170l156 -684q70 -309 92 -485h6q33 199 98 485l162 684h174l-354 -1380h-176l-162 705q-63 270 -86 452h-4q-27 -193 -96 -455l-178 -702h-177z" />
<glyph unicode="X" horiz-adv-x="1058" d="M45 0l381 700l-367 680h193l166 -323q61 -115 114 -230h5q49 113 110 232l164 321h193l-375 -671l387 -709h-195l-162 313q-66 115 -137 262h-4q-59 -133 -129 -264l-151 -311h-193z" />
<glyph unicode="Y" horiz-adv-x="1017" d="M25 1380h192l172 -370q86 -186 127 -293h4q39 109 127 295l174 368h191l-418 -792v-588h-172v586z" />
<glyph unicode="Z" horiz-adv-x="1013" d="M55 0v100l678 1129v6h-620v145h835v-108l-672 -1120v-7h678v-145h-899z" />
<glyph unicode="[" horiz-adv-x="563" d="M162 -229v1634h354v-111h-217v-1413h217v-110h-354z" />
<glyph unicode="\" horiz-adv-x="651" d="M4 1401h133l510 -1483h-133z" />
<glyph unicode="]" horiz-adv-x="563" d="M47 -119h217v1413h-217v111h354v-1634h-354v110z" />
<glyph unicode="^" horiz-adv-x="1220" d="M127 387l422 944h125l422 -944h-140l-344 795h-4l-342 -795h-139z" />
<glyph unicode="_" horiz-adv-x="1024" d="M0 -154h1024v-102h-1024v102z" />
<glyph unicode="`" horiz-adv-x="614" d="M55 1413h187l174 -289h-121z" />
<glyph unicode="a" horiz-adv-x="915" d="M68 264q0 178 143 273q140 92 388 92h11v24q0 43 -7 78t-27.5 72t-63.5 57.5t-106 20.5q-133 0 -230 -68l-39 119q123 80 297 80q348 0 348 -391v-388q0 -156 15 -233h-156l-14 119h-6q-94 -139 -273 -139q-129 0 -204.5 82.5t-75.5 201.5zM240 283q0 -86 44 -129 t109 -43q82 0 138.5 45t74.5 114q8 25 8 58v180h-13q-361 0 -361 -225z" />
<glyph unicode="b" horiz-adv-x="1060" d="M129 0q8 131 8 250v1194h172v-598h4q92 166 299 166q166 0 270.5 -138.5t104.5 -365.5q0 -252 -118.5 -390t-282.5 -138q-199 0 -293 174h-6l-8 -154h-150zM309 383q0 -35 6 -64q25 -96 89.5 -148t146.5 -52q125 0 193.5 105.5t68.5 275.5q0 160 -67.5 266t-192.5 106 q-80 0 -147.5 -59t-88.5 -149q-8 -41 -8 -72v-209z" />
<glyph unicode="c" horiz-adv-x="827" d="M74 487q0 227 135 376t356 149q135 0 217 -47l-39 -134q-82 41 -180 41q-147 0 -230 -108.5t-83 -269.5q0 -170 86 -270.5t225 -100.5q94 0 189 41l26 -131q-98 -51 -248 -51q-205 0 -329.5 137t-124.5 368z" />
<glyph unicode="d" horiz-adv-x="1052" d="M74 485q0 244 116.5 385.5t284.5 141.5q188 0 264 -140h4v572h172v-1194q0 -119 9 -250h-152l-10 158h-6q-37 -78 -116 -128t-181 -50q-168 0 -276.5 139t-108.5 366zM248 492q0 -160 67.5 -265.5t190.5 -105.5q78 0 141.5 52t87.5 151q8 27 8 73v199q0 39 -6 74 q-18 86 -79.5 144t-147.5 58q-123 0 -192.5 -107t-69.5 -273z" />
<glyph unicode="e" horiz-adv-x="942" d="M74 481q0 231 116.5 381t311.5 150q102 0 178 -43t115 -114t57 -145.5t18 -154.5q0 -55 -6 -86h-622q2 -184 88 -268t219 -84q139 0 242 47l28 -125q-119 -57 -295 -57q-211 0 -330.5 135t-119.5 364zM244 594h461q2 119 -51.5 205t-168.5 86q-109 0 -170 -88t-71 -203z " />
<glyph unicode="f" horiz-adv-x="559" d="M25 860v131h135v51q0 225 106 332q88 90 228 90q84 0 145 -26l-25 -135q-49 20 -106 20q-176 0 -176 -276v-56h221v-131h-221v-860h-172v860h-135z" />
<glyph unicode="g" horiz-adv-x="1046" d="M76 489q0 244 120.5 383.5t284.5 139.5q184 0 273 -158h4l8 137h152q-8 -139 -9 -282v-570q0 -324 -127 -446q-121 -115 -331 -115q-182 0 -297 72l43 133q111 -68 258 -68q285 0 284 332v109h-4q-37 -70 -109.5 -112t-166.5 -42q-168 0 -275.5 138t-107.5 349zM250 498 q0 -162 68.5 -261.5t189.5 -99.5q72 0 131 44t86 128q12 37 12 94v211q0 47 -8 78q-25 78 -81 129t-140 51q-117 0 -187.5 -102t-70.5 -272z" />
<glyph unicode="h" horiz-adv-x="1044" d="M139 0v1444h172v-592h4q41 70 115 115q78 45 170 45q53 0 103.5 -19.5t98.5 -62.5t77.5 -125t29.5 -195v-610h-172v592q0 123 -48 199.5t-152 76.5q-76 0 -133.5 -48t-81.5 -126q-10 -29 -11 -82v-612h-172z" />
<glyph unicode="i" horiz-adv-x="448" d="M117 1264q0 47 30.5 78.5t75.5 31.5q47 0 77 -31.5t30 -78.5t-29 -78t-78 -31h-2q-45 0 -74.5 31t-29.5 78zM139 0v991h172v-991h-172z" />
<glyph unicode="j" horiz-adv-x="464" d="M-82 -289q125 14 176 76q35 43 49.5 119t14.5 237v848h172v-911q0 -281 -113 -399q-102 -102 -280 -107zM137 1264q0 47 31 78.5t78 31.5t75.5 -30.5t28.5 -79.5q0 -45 -29.5 -77t-76.5 -32h-2q-47 0 -76 32t-29 77z" />
<glyph unicode="k" horiz-adv-x="888" d="M137 0v1444h172v-909h4q25 39 76 112l264 344h203l-346 -411l391 -580h-207l-303 473l-82 -100v-373h-172z" />
<glyph unicode="l" horiz-adv-x="454" d="M139 0v1444h172v-1444h-172z" />
<glyph unicode="m" horiz-adv-x="1576" d="M129 991h152l8 -149h4q96 170 287 170q90 0 158.5 -49.5t99.5 -135.5h4q41 78 106 125q82 59 193 60q121 0 211 -95.5t90 -310.5v-606h-170v578q0 291 -193 290q-68 0 -119 -44t-73 -113q-12 -39 -13 -90v-621h-169v610q0 115 -46.5 186.5t-138.5 71.5q-72 0 -127 -50 t-74 -124q-12 -39 -12 -88v-606h-170v727q0 100 -8 264z" />
<glyph unicode="n" horiz-adv-x="1044" d="M131 991h152l10 -149h4q39 72 117 121t180 49q125 0 220 -94.5t95 -303.5v-614h-172v592q0 276 -200 276q-76 0 -134.5 -50t-80.5 -128q-10 -37 -11 -84v-606h-172v727q0 100 -8 264z" />
<glyph unicode="o" horiz-adv-x="1021" d="M74 489q0 248 126 385.5t318.5 137.5t311 -137.5t118.5 -372.5q0 -260 -132 -391t-310 -131h-2q-186 0 -308 135.5t-122 373.5zM250 494q0 -158 70.5 -270.5t189.5 -112.5h2q117 0 188.5 113.5t71.5 273.5q0 90 -23.5 173t-85 146.5t-151.5 63.5q-131 0 -196.5 -116.5 t-65.5 -270.5z" />
<glyph unicode="p" horiz-adv-x="1060" d="M129 991h154l10 -155h4q104 176 309 176q168 0 274.5 -138.5t106.5 -365.5q0 -256 -118.5 -392t-288.5 -136q-184 0 -267 143h-4v-524h-172v1073q0 147 -8 319zM309 391q0 -43 8 -76q23 -94 87.5 -145t144.5 -51q127 0 195.5 105.5t68.5 275.5q0 160 -68.5 265 t-191.5 105q-80 0 -146.5 -59t-87.5 -149q-10 -37 -10 -74v-197z" />
<glyph unicode="q" horiz-adv-x="1050" d="M76 481q0 256 121.5 393.5t285.5 137.5q188 0 269 -160h4l6 139h162q-8 -156 -9 -282v-1110h-172v538h-6q-37 -70 -109.5 -113.5t-172.5 -43.5q-162 0 -270.5 137t-108.5 364zM250 492q0 -162 65.5 -267.5t192.5 -105.5q74 0 134 47t89 139q12 39 12 86v209q0 41 -6 72 q-18 84 -79.5 142t-145.5 58q-123 0 -192.5 -106t-69.5 -274z" />
<glyph unicode="r" horiz-adv-x="620" d="M129 991h152l8 -184h6q31 92 100.5 148.5t153.5 56.5q16 0 45 -4v-168q-14 4 -51 4q-88 0 -149.5 -62.5t-78.5 -160.5q-6 -37 -6 -86v-535h-172v698q0 121 -8 293z" />
<glyph unicode="s" horiz-adv-x="745" d="M70 47l43 131q100 -66 215 -65q86 0 132 40t46 107q0 61 -38 102t-130 82q-244 104 -244 283q0 123 89 204t233 81q127 0 223 -58l-43 -127q-84 53 -182 54q-72 0 -113 -38t-41 -95q0 -55 37 -91t131 -79q244 -104 244 -299q0 -137 -94.5 -217t-253.5 -80 q-150 -1 -254 65z" />
<glyph unicode="t" horiz-adv-x="630" d="M33 860v131h143v178l170 58v-236h238v-131h-238v-551q0 -184 127 -184q51 0 92 10l6 -131q-59 -23 -147 -22q-121 0 -182 71q-66 74 -66 256v551h-143z" />
<glyph unicode="u" horiz-adv-x="1034" d="M133 397v594h172v-565q0 -303 195 -303q78 0 132 47t77 109q14 47 14 92v620h172v-721q0 -115 8 -270h-151l-11 143h-4q-39 -66 -113.5 -114.5t-179.5 -48.5q-137 0 -224 98t-87 319z" />
<glyph unicode="v" horiz-adv-x="903" d="M27 991h184l174 -555q39 -125 70 -252h4q20 86 71 252l172 555h179l-351 -991h-161z" />
<glyph unicode="w" horiz-adv-x="1402" d="M33 991h178l121 -495q49 -209 67 -318h7q27 127 81 314l148 499h141l142 -489q61 -229 79 -324h7q18 109 69 322l127 491h172l-299 -991h-153l-140 475q-51 168 -78 320h-4q-25 -131 -82 -322l-145 -473h-156z" />
<glyph unicode="x" horiz-adv-x="872" d="M18 0l318 504l-303 487h190l127 -211q57 -100 90 -166h4q49 94 91 166l122 211h187l-307 -481l313 -510h-195l-131 223q-25 41 -94 172h-4q-18 -39 -92 -172l-127 -223h-189z" />
<glyph unicode="y" horiz-adv-x="888" d="M20 991h187l192 -581q35 -115 56 -203h6q20 86 55 207l174 577h180l-237 -684q-88 -254 -157.5 -398.5t-153.5 -227.5q-102 -100 -209 -127l-50 145q84 35 154 98q84 84 131 193q14 35 14 45q0 12 -10 43z" />
<glyph unicode="z" horiz-adv-x="804" d="M35 0v102l407 592q25 37 115 154v4h-483v139h690l-2 -108l-404 -586q-61 -90 -112 -154v-4h522v-139h-733z" />
<glyph unicode="{" horiz-adv-x="563" d="M57 537v104q158 0 158 150q0 2 -12 174q-16 115 -17 174q0 135 77 200.5t208 65.5h37v-111h-35q-80 -2 -114.5 -45t-34.5 -125q0 -51 12 -149q14 -90 14 -156q2 -186 -145 -227v-4q147 -41 145 -230q0 -53 -12 -155q-14 -90 -14 -150q0 -164 151 -172h33v-110h-37 q-129 0 -207 65.5t-78 208.5q0 39 14.5 172t14.5 170q0 150 -158 150z" />
<glyph unicode="|" horiz-adv-x="464" d="M166 -512v2048h135v-2048h-135z" />
<glyph unicode="}" horiz-adv-x="563" d="M55 -119h33q152 8 152 172q0 59 -14.5 149.5t-14.5 155.5q-2 188 145 230v4q-147 41 -145 227q0 66 14 156q14 86 15 149q0 82 -35 125t-115 45h-35v111h37q131 0 208 -65.5t77 -200.5q0 -59 -17 -174q-14 -133 -14 -174q0 -150 158 -150v-104q-158 0 -158 -150 q0 -55 16 -170q14 -133 15 -172q0 -143 -78 -208.5t-207 -65.5h-37v110z" />
<glyph unicode="~" horiz-adv-x="1220" d="M115 438q-4 141 62.5 219t176.5 78q94 0 281 -90q172 -84 248 -84q106 0 106 168h119q8 -152 -57.5 -225.5t-172 -73.5t-284.5 88q-176 88 -244 88q-115 0 -117 -168h-118z" />
<glyph unicode="&#xa1;" horiz-adv-x="454" d="M113 882.5q0 53.5 32.5 88.5t81.5 35h2q51 0 82 -35t31 -88.5t-30.5 -88t-84.5 -34.5q-51 0 -82.5 34.5t-31.5 88zM133 -395l27 983h135l27 -983h-189z" />
<glyph unicode="&#xa2;" d="M135 668q0 195 100.5 331t270.5 164v203h123v-197q119 -2 196 -47l-37 -133q-78 47 -192 47q-133 0 -211 -107.5t-78 -258.5q0 -164 81 -260.5t206 -96.5q111 0 209 45l26 -125q-82 -47 -200 -53v-203h-123v205q-160 20 -260 131q-111 128 -111 355z" />
<glyph unicode="&#xa3;" d="M100 0v102q94 45 158 145.5t64 211.5q0 86 -11 151h-198v125h178q-25 143 -25 226q0 178 103.5 284.5t265.5 106.5q131 0 205 -47l-37 -134q-66 39 -166 39q-104 0 -155.5 -67.5t-51.5 -175.5q0 -92 25 -232h272v-125h-254q12 -156 -8 -237q-35 -129 -137 -223v-5h565 v-145h-793z" />
<glyph unicode="&#xa4;" d="M39 1067l90 92l135 -153q88 84 223 84h2q133 0 222 -82l139 151l88 -90l-156 -145q63 -106 64 -242q0 -145 -66 -248l152 -151l-86 -88l-137 155q-86 -86 -225.5 -86t-221.5 82l-133 -151l-86 88l145 145q-68 102 -67.5 243.5t72.5 252.5zM264 676q0 -135 66.5 -211 t152.5 -76q90 -2 154.5 74t64.5 217q0 119 -58 202t-159 83h-2q-100 0 -159.5 -81t-59.5 -208z" />
<glyph unicode="&#xa5;" d="M33 1331h182l188 -413q47 -102 78 -193h6q25 78 78 197l197 409h176l-334 -618h252v-99h-301v-149h301v-98h-301v-367h-162v367h-299v98h299v149h-299v99h252z" />
<glyph unicode="&#xa6;" horiz-adv-x="464" d="M166 356h135v-716h-135v716zM166 664v716h135v-716h-135z" />
<glyph unicode="&#xa7;" horiz-adv-x="989" d="M104 700q0 137 148 240q-74 61 -74 170q0 133 103.5 211t257.5 78q152 0 260 -64l-41 -112q-98 59 -226 59q-86 0 -144 -40t-58 -112q0 -51 34.5 -87.5t76.5 -56t128 -50.5q156 -55 237 -126t81 -198q0 -145 -129 -247q76 -72 76 -181q0 -147 -110 -225t-263 -78 q-193 0 -301 80l45 115q113 -78 256 -78q94 0 155.5 43t61.5 123q0 70 -52.5 116t-187.5 99q-168 63 -251 132.5t-83 188.5zM244 719q0 -111 200 -189q160 -59 224 -102q78 53 77 158q0 123 -170 190q-207 84 -239 105q-92 -61 -92 -160v-2z" />
<glyph unicode="&#xa8;" horiz-adv-x="614" d="M27 1266q0 41 29.5 70.5t70.5 29.5t68.5 -28.5t27.5 -71.5t-26.5 -72t-69.5 -29h-2q-43 0 -70.5 29t-27.5 72zM389 1266q0 41 28.5 70.5t71.5 29.5q41 0 69 -28.5t28 -71.5t-27 -72t-70 -29h-4q-41 0 -68.5 30t-27.5 71z" />
<glyph unicode="&#xa9;" horiz-adv-x="1386" d="M72 696q0 262 181 446.5t443 184.5h2q258 0 437.5 -184.5t179.5 -446.5q0 -264 -179.5 -449.5t-439.5 -185.5q-262 0 -443 185.5t-181 449.5zM174 690q0 -229 150.5 -387t371.5 -158q217 -2 366.5 158t149.5 393q0 229 -149.5 388t-366.5 159h-2q-219 0 -369.5 -160 t-150.5 -393zM354 684q0 170 115 275.5t279 105.5q72 0 135 -17.5t88 -35.5l-25 -82q-76 47 -198 47q-137 0 -212 -80t-75 -207t75.5 -208t211.5 -81q121 0 208 52l25 -76q-96 -63 -252 -64q-174 0 -274.5 105.5t-100.5 265.5z" />
<glyph unicode="&#xaa;" horiz-adv-x="663" d="M66 725q0 115 102 177.5t281 58.5v22q0 45 -33 86t-111 41q-92 0 -162 -51l-30 86q90 63 217 63q246 0 245 -274v-234q0 -98 11 -157h-115l-12 82h-4q-70 -92 -191 -93q-90 0 -144 54.5t-54 138.5zM193 735q0 -49 32.5 -77.5t79.5 -28.5q80 0 127 71q18 29 19 52v120 q-258 4 -258 -137z" />
<glyph unicode="&#xab;" horiz-adv-x="819" d="M55 516l254 371h140l-256 -371l256 -371h-142zM379 516l252 371h141l-256 -371l256 -371h-141z" />
<glyph unicode="&#xac;" horiz-adv-x="1220" d="M82 698v119h1057v-569h-127v450h-930z" />
<glyph unicode="&#xad;" horiz-adv-x="610" d="M61 483v129h488v-129h-488z" />
<glyph unicode="&#xae;" horiz-adv-x="829" d="M76 1069q0 137 99 233.5t241 96.5h2q139 0 236.5 -96.5t97.5 -233.5q0 -141 -97.5 -238.5t-239 -97.5t-240.5 97.5t-99 238.5zM160 1069q0 -113 72.5 -189.5t183.5 -76.5q109 -2 180.5 74.5t71.5 189.5t-72 188.5t-182 75.5h-2q-106 0 -179 -75.5t-73 -186.5zM287 895 v332q72 10 125 10q76 0 112 -27q35 -20 35 -69q0 -55 -70 -78v-4q43 -14 60 -82q12 -55 24 -82h-79q-10 12 -25 82q-12 51 -70 51h-37v-133h-75zM362 1083h37q78 0 78 47q0 51 -71 52q-23 0 -44 -4v-95z" />
<glyph unicode="&#xaf;" horiz-adv-x="614" d="M88 1196v113h442v-113h-442z" />
<glyph unicode="&#xb0;" horiz-adv-x="626" d="M59 1130q0 115 78 194t189 79h2q117 0 189.5 -78t72.5 -186q0 -117 -81 -194t-187 -77q-113 0 -188 76.5t-75 185.5zM166 1130.5q0 -71.5 45 -120.5t113 -49q70 0 114.5 50t44.5 126q0 70 -41 122t-118 52h-2q-70 0 -113 -54.5t-43 -126z" />
<glyph unicode="&#xb1;" horiz-adv-x="1220" d="M82 0v119h1057v-119h-1057zM82 651v119h465v397h127v-397h465v-119h-465v-411h-127v411h-465z" />
<glyph unicode="&#xb2;" horiz-adv-x="595" d="M18 891v72l117 114q127 125 187.5 209t60.5 162q0 63 -38 101t-107 38q-86 0 -160 -61l-41 92q94 82 235 82q127 0 191.5 -66.5t64.5 -160.5q0 -102 -65.5 -195.5t-188.5 -208.5l-61 -63v-5h330v-110h-525z" />
<glyph unicode="&#xb3;" horiz-adv-x="581" d="M14 934l33 100q74 -49 176 -49q80 0 125 41t45 98q0 74 -59.5 111t-149.5 37h-43v92h43q66 0 123.5 33t57.5 96q0 45 -32 73.5t-91 28.5q-88 0 -158 -51l-35 94q96 61 219 62q117 0 177.5 -55.5t60.5 -135.5q0 -127 -148 -184v-4q78 -12 128.5 -66.5t50.5 -132.5 q0 -102 -83 -171.5t-227 -69.5q-129 0 -213 53z" />
<glyph unicode="&#xb4;" horiz-adv-x="614" d="M213 1124l174 289h186l-239 -289h-121z" />
<glyph unicode="&#xb5;" horiz-adv-x="1038" d="M137 -57v1048h172v-606q0 -117 48.5 -189.5t148.5 -72.5q78 0 133 47t76 109q14 43 14 92v620h172v-735q0 -76 18.5 -108.5t65.5 -34.5l-14 -125q-25 -8 -60 -8q-137 0 -159 159h-7q-31 -59 -97 -106t-154 -47q-139 0 -195 98v-129q0 -258 20 -356h-153q-29 80 -29 344z " />
<glyph unicode="&#xb6;" horiz-adv-x="980" d="M68 930q-6 188 120.5 320t411.5 132q133 0 221 -16v-1468h-119v1368h-139v-1368h-119v649h-14q-127 0 -241.5 101.5t-120.5 281.5z" />
<glyph unicode="&#xb7;" horiz-adv-x="415" d="M90 536.5q0 53.5 34 89.5t83 36q51 0 84 -35t33 -90q0 -53 -33 -89t-84 -36h-2q-49 0 -82 35.5t-33 89z" />
<glyph unicode="&#xb8;" horiz-adv-x="614" d="M123 -373l31 86q49 -31 108 -30q84 0 84 63q0 74 -153 88l92 172h106l-63 -108q57 -8 98 -47t41 -97q0 -84 -58.5 -124t-146.5 -40q-82 0 -139 37z" />
<glyph unicode="&#xb9;" horiz-adv-x="481" d="M39 1597l190 93h121v-799h-137v676h-4l-148 -74z" />
<glyph unicode="&#xba;" horiz-adv-x="694" d="M47 866q0 158 88 250t215 92h2q135 0 215 -91t80 -243q-2 -168 -91 -255t-210 -87q-129 0 -214 90t-85 244zM178 868q0 -96 48 -165.5t120 -69.5q78 0 124 68.5t46 168.5q0 90 -42 164t-128 74h-2q-80 0 -123 -74t-43 -166z" />
<glyph unicode="&#xbb;" horiz-adv-x="819" d="M47 145l256 371l-256 371h139l254 -371l-252 -371h-141zM369 145l256 371l-256 371h139l254 -371l-252 -371h-141z" />
<glyph unicode="&#xbc;" horiz-adv-x="1464" d="M82 1249l190 92h121v-798h-137v676h-4l-148 -74zM264 -20l754 1372h108l-751 -1372h-111zM774 213v78l365 516h141v-496h115v-98h-115v-213h-129v213h-377zM913 315l2 -4h236v232q0 23 6 133h-4q-14 -25 -36.5 -65t-31.5 -54z" />
<glyph unicode="&#xbd;" horiz-adv-x="1464" d="M51 1249l191 92h120v-798h-137v676h-4l-147 -74zM221 -20l752 1372h110l-751 -1372h-111zM850 0v72l115 112q127 127 187 211t60 162q0 63 -37.5 101t-107.5 38q-80 0 -160 -61l-41 92q94 82 236 82q127 0 191.5 -66.5t64.5 -160.5q0 -104 -63.5 -194.5t-190.5 -209.5 l-62 -63v-4h330v-111h-522z" />
<glyph unicode="&#xbe;" horiz-adv-x="1464" d="M61 586l33 98q78 -47 176 -47q80 0 125 40t45 97q0 74 -59 112t-150 38h-43v92h43q66 0 123.5 32.5t57.5 96.5q0 45 -32 73.5t-91 28.5q-88 0 -158 -51l-35 94q96 61 217 62q117 0 178.5 -55.5t61.5 -135.5q0 -127 -147 -184v-4q78 -10 128 -65.5t50 -135.5 q0 -100 -83 -170t-227 -70q-129 1 -213 54zM326 -20l755 1372h111l-754 -1372h-112zM791 213v78l366 516h141v-496h115v-98h-115v-213h-129v213h-378zM928 315l2 -4h239v232q0 29 7 133h-5q-10 -18 -31.5 -58t-35.5 -61z" />
<glyph unicode="&#xbf;" horiz-adv-x="772" d="M96 -125q0 66 28 135.5t56.5 110.5t85.5 117q115 152 103 311l-2 47h153l4 -45q23 -184 -114 -367q-72 -94 -104 -157.5t-32 -130.5q0 -82 47.5 -127t135.5 -45q106 0 186 55l45 -127q-106 -74 -266 -74t-243 86t-83 211zM332 881q0 55 32.5 90t84.5 35h2q49 0 80.5 -35 t31.5 -90q0 -53 -31.5 -88t-82.5 -35q-53 0 -85 35t-32 88z" />
<glyph unicode="&#xc0;" horiz-adv-x="1144" d="M49 0l424 1380h203l422 -1380h-180l-132 428h-434l-127 -428h-176zM283 1688h209l190 -234h-139zM385 563h371l-119 383q-29 102 -66 271h-6q-37 -172 -63 -269z" />
<glyph unicode="&#xc1;" horiz-adv-x="1144" d="M49 0l424 1380h203l422 -1380h-180l-132 428h-434l-127 -428h-176zM385 563h371l-119 383q-29 102 -66 271h-6q-37 -172 -63 -269zM469 1454l193 234h206l-258 -234h-141z" />
<glyph unicode="&#xc2;" horiz-adv-x="1144" d="M49 0l424 1380h203l422 -1380h-180l-132 428h-434l-127 -428h-176zM311 1454l199 223h137l205 -223h-147l-123 133h-4l-123 -133h-144zM385 563h371l-119 383q-29 102 -66 271h-6q-37 -172 -63 -269z" />
<glyph unicode="&#xc3;" horiz-adv-x="1144" d="M49 0l424 1380h203l422 -1380h-180l-132 428h-434l-127 -428h-176zM336 1466q-2 92 34 147.5t99 55.5q45 0 115 -39q66 -37 94 -37q27 0 39 17.5t16 62.5h90q4 -195 -133 -194q-49 0 -119 37q-66 37 -90 36q-43 0 -53 -86h-92zM383 563h373l-119 383q-29 102 -66 271h-6 q-37 -174 -65 -269z" />
<glyph unicode="&#xc4;" horiz-adv-x="1144" d="M49 0l424 1380h203l420 -1380h-181l-129 428h-434l-127 -428h-176zM301 1575q0 41 28.5 70.5t69.5 29.5t68 -28.5t27 -71.5q0 -45 -27 -73.5t-70 -28.5h-2q-41 0 -67.5 29.5t-26.5 72.5zM385 563h369l-117 383q-29 102 -66 271h-6q-37 -172 -63 -269zM666 1575 q0 41 27.5 70.5t68.5 29.5q43 0 69.5 -28.5t26.5 -71.5q0 -45 -26.5 -73.5t-69.5 -28.5h-2q-41 0 -67.5 29.5t-26.5 72.5z" />
<glyph unicode="&#xc5;" horiz-adv-x="1144" d="M51 0l422 1380h203l420 -1380h-181l-129 428h-434l-127 -428h-174zM377 1610q0 78 55 131t146 53h2q90 0 143 -52t53 -132q0 -76 -55 -128t-143 -52q-90 0 -145.5 52t-55.5 128zM385 563h369l-117 383q-29 102 -66 271h-6q-37 -172 -63 -269zM479 1610q0 -41 28 -73 t68 -32q43 0 71 31t28 76t-28 76.5t-71 31.5h-2q-43 0 -68.5 -32.5t-25.5 -77.5z" />
<glyph unicode="&#xc6;" horiz-adv-x="1470" d="M4 0l567 1380h791l-2 -145h-522l43 -447h467v-143h-447l51 -500h463v-145h-612l-51 477h-379l-193 -477h-176zM424 616h311l-39 404q-2 23 -7 73t-8 91t-5 73h-10q-41 -123 -84 -239z" />
<glyph unicode="&#xc7;" horiz-adv-x="1083" d="M72 676q0 340 183 531.5t468 191.5q184 0 281 -53l-41 -142q-98 49 -236 49q-213 0 -344 -146t-131 -421q0 -268 126 -412.5t343 -144.5q150 0 248 49l32 -141q-109 -53 -301 -55l-51 -84q59 -12 100.5 -52.5t41.5 -99.5q0 -82 -59.5 -123t-143.5 -41q-80 0 -144 35 l31 90q47 -29 109 -29q84 0 84 64q0 70 -154 88l82 158q-240 29 -382 205t-142 483z" />
<glyph unicode="&#xc8;" horiz-adv-x="921" d="M145 0v1380h680v-145h-508v-442h478v-144h-478v-504h537v-145h-709zM207 1688h207l190 -234h-139z" />
<glyph unicode="&#xc9;" horiz-adv-x="921" d="M145 0v1380h680v-145h-508v-442h478v-144h-478v-504h537v-145h-709zM393 1454l191 234h209l-261 -234h-139z" />
<glyph unicode="&#xca;" horiz-adv-x="921" d="M145 0v1380h680v-145h-508v-442h478v-144h-478v-504h537v-145h-709zM215 1454l201 223h137l203 -223h-148l-123 133h-4l-123 -133h-143z" />
<glyph unicode="&#xcb;" horiz-adv-x="921" d="M145 0v1380h680v-145h-508v-442h478v-144h-478v-504h537v-145h-709zM205 1579q0 43 28.5 72.5t69.5 29.5t67.5 -29.5t26.5 -72.5t-26.5 -71.5t-69.5 -28.5h-2q-41 0 -67.5 28.5t-26.5 71.5zM569 1579q0 43 28 72.5t69 29.5q43 0 69.5 -29.5t26.5 -72.5t-26.5 -71.5 t-69.5 -28.5h-2q-41 0 -68 28.5t-27 71.5z" />
<glyph unicode="&#xcc;" horiz-adv-x="464" d="M-63 1688h208l191 -234h-139zM145 0v1380h172v-1380h-172z" />
<glyph unicode="&#xcd;" horiz-adv-x="464" d="M123 1454l190 234h209l-260 -234h-139zM145 0v1380h172v-1380h-172z" />
<glyph unicode="&#xce;" horiz-adv-x="464" d="M-37 1454l201 223h135l205 -223h-148l-123 133h-4l-123 -133h-143zM145 0v1380h172v-1380h-172z" />
<glyph unicode="&#xcf;" horiz-adv-x="464" d="M-45 1581q0 41 28.5 70.5t69.5 29.5t67.5 -28.5t26.5 -71.5q0 -45 -26.5 -73.5t-69.5 -28.5h-2q-41 0 -67.5 29.5t-26.5 72.5zM145 0v1380h172v-1380h-172zM319 1581q0 41 28 70.5t69 29.5q43 0 69.5 -28.5t26.5 -71.5q0 -45 -26.5 -73.5t-69.5 -28.5h-2q-41 0 -68 29.5 t-27 72.5z" />
<glyph unicode="&#xd0;" horiz-adv-x="1241" d="M-2 639v135h160v590q147 29 327 29q328 0 490 -150q193 -172 192 -520q0 -360 -188 -553q-180 -184 -543 -184q-141 0 -278 14v639h-160zM330 133q39 -6 143 -6q248 0 381 147.5t133 446.5q2 256 -122 395t-367 139q-100 0 -168 -14v-467h321v-135h-321v-506z" />
<glyph unicode="&#xd1;" horiz-adv-x="1228" d="M145 0v1380h183l385 -682q137 -244 225 -458l4 2q-18 248 -18 585v553h159v-1380h-172l-385 688q-166 305 -229 465l-6 -2q14 -209 14 -594v-557h-160zM381 1466q-2 92 34 147.5t99 55.5q41 0 115 -39q66 -37 92.5 -37t38.5 17.5t16 62.5h90q4 -195 -133 -194 q-45 0 -119 37q-63 37 -90 36q-41 0 -51 -86h-92z" />
<glyph unicode="&#xd2;" horiz-adv-x="1261" d="M72 682q0 328 158.5 523.5t410.5 195.5q250 0 398.5 -191.5t148.5 -507.5q0 -348 -160 -535t-405 -187h-2q-246 0 -397.5 191.5t-151.5 510.5zM252 686q0 -229 99.5 -396t277.5 -167h2q180 0 278.5 166t98.5 407q0 225 -97.5 393t-279.5 168q-184 0 -281.5 -167.5 t-97.5 -403.5zM338 1692h209l190 -234h-139z" />
<glyph unicode="&#xd3;" horiz-adv-x="1261" d="M72 682q0 328 158.5 523.5t410.5 195.5q250 0 398.5 -191.5t148.5 -507.5q0 -348 -160 -535t-405 -187h-2q-246 0 -397.5 191.5t-151.5 510.5zM252 686q0 -229 99.5 -396t277.5 -167h2q180 0 278.5 166t98.5 407q0 225 -97.5 393t-279.5 168q-184 0 -281.5 -167.5 t-97.5 -403.5zM524 1458l193 234h207l-258 -234h-142z" />
<glyph unicode="&#xd4;" horiz-adv-x="1261" d="M72 682q0 328 158.5 523.5t410.5 195.5q250 0 398.5 -191.5t148.5 -507.5q0 -348 -160 -535t-405 -187h-2q-246 0 -397.5 191.5t-151.5 510.5zM252 686q0 -229 99.5 -396t277.5 -167h2q180 0 278.5 166t98.5 407q0 225 -97.5 393t-279.5 168q-184 0 -281.5 -167.5 t-97.5 -403.5zM360 1458l201 223h137l203 -223h-145l-125 133h-4l-123 -133h-144z" />
<glyph unicode="&#xd5;" horiz-adv-x="1261" d="M72 682q0 328 158.5 523.5t410.5 195.5q250 0 398.5 -191.5t148.5 -507.5q0 -348 -160 -535t-405 -187h-2q-246 0 -397.5 191.5t-151.5 510.5zM252 686q0 -229 99.5 -396t277.5 -167h2q180 0 278.5 166t98.5 407q0 141 -38 265t-126 210t-211 86q-184 0 -282.5 -167.5 t-98.5 -403.5zM387 1468q-2 92 34 147.5t99 55.5q45 0 115 -39q66 -37 94 -37q27 0 39 17.5t16 62.5h90q4 -195 -133 -194q-49 0 -118 37q-66 37 -91 36q-43 0 -53 -86h-92z" />
<glyph unicode="&#xd6;" horiz-adv-x="1261" d="M72 682q0 328 158.5 523.5t410.5 195.5q250 0 398.5 -191.5t148.5 -507.5q0 -348 -160 -535t-405 -187h-2q-246 0 -397.5 191.5t-151.5 510.5zM252 686q0 -229 100.5 -396t276.5 -167h2q180 0 278.5 166t98.5 407q0 141 -38 265t-126 210t-211 86q-184 0 -282.5 -167.5 t-98.5 -403.5zM352 1581q0 41 29 70.5t70 29.5t67.5 -28.5t26.5 -71.5q0 -45 -26.5 -73.5t-69.5 -28.5h-3q-41 0 -67.5 29.5t-26.5 72.5zM717 1581q0 41 27.5 70.5t68.5 29.5q43 0 69.5 -28.5t26.5 -71.5q0 -45 -26.5 -73.5t-69.5 -28.5h-2q-41 0 -67.5 29.5t-26.5 72.5z " />
<glyph unicode="&#xd7;" horiz-adv-x="1220" d="M82 88l442 451l-442 450l86 88l440 -452l445 452l86 -88l-443 -450l441 -451l-86 -88l-441 451l-442 -451z" />
<glyph unicode="&#xd8;" horiz-adv-x="1261" d="M72 686q0 326 158.5 520.5t404.5 194.5q172 0 305 -101l102 158l105 -63l-113 -181q156 -195 156 -512q0 -350 -160 -536t-397 -186q-178 0 -309 104l-111 -168l-96 70l114 184q-159 192 -159 516zM246 692q0 -195 82 -362l4 2l526 833q-98 94 -225 95 q-184 0 -285.5 -168.5t-101.5 -399.5zM403 221q90 -100 228 -100q182 0 283.5 167t101.5 408q0 201 -80 353l-4 2z" />
<glyph unicode="&#xd9;" horiz-adv-x="1208" d="M145 535v845h172v-850q0 -209 77 -308t206 -99q293 0 293 407v850h172v-833q0 -291 -128 -429t-343 -138q-209 0 -329 133t-120 422zM317 1688h209l191 -234h-139z" />
<glyph unicode="&#xda;" horiz-adv-x="1208" d="M145 535v845h172v-850q0 -209 77 -308t206 -99q293 0 293 407v850h172v-833q0 -291 -128 -429t-343 -138q-209 0 -329 133t-120 422zM508 1454l190 234h209l-260 -234h-139z" />
<glyph unicode="&#xdb;" horiz-adv-x="1208" d="M145 535v845h172v-850q0 -209 77 -308t206 -99q293 0 293 407v850h172v-833q0 -291 -128 -429t-343 -138q-209 0 -329 133t-120 422zM346 1454l199 223h137l205 -223h-148l-123 133h-4l-123 -133h-143z" />
<glyph unicode="&#xdc;" horiz-adv-x="1208" d="M145 535v845h172v-850q0 -209 77 -308t206 -99q137 0 215 100.5t78 306.5v850h172v-833q0 -289 -128 -428t-343 -139q-209 0 -329 133t-120 422zM330 1581q0 41 28.5 70.5t69.5 29.5t67.5 -28.5t26.5 -71.5q0 -45 -26.5 -73.5t-69.5 -28.5h-2q-41 0 -67.5 29.5 t-26.5 72.5zM694 1581q0 41 28 70.5t69 29.5q43 0 69.5 -28.5t26.5 -71.5q0 -45 -26.5 -73.5t-69.5 -28.5h-3q-41 0 -67.5 29.5t-26.5 72.5z" />
<glyph unicode="&#xdd;" horiz-adv-x="1017" d="M25 1380h192l172 -370q86 -186 127 -293h4q39 109 127 295l174 368h191l-418 -792v-588h-172v586zM424 1446l190 233h209l-260 -233h-139z" />
<glyph unicode="&#xde;" horiz-adv-x="1005" d="M145 0v1380h170v-270q70 12 168 12q219 0 340 -108q109 -102 109 -269q0 -209 -134 -319.5t-349 -110.5q-72 0 -134 11v-326h-170zM315 467q47 -12 129 -12q152 0 234 72.5t82 201.5q0 123 -76 189.5t-217 66.5q-98 0 -152 -14v-504z" />
<glyph unicode="&#xdf;" horiz-adv-x="1050" d="M139 0v924q0 309 142 440q106 100 278 100q145 0 245.5 -89t100.5 -249q0 -96 -47 -170q-143 -59 -143 -163q0 -49 23.5 -86t76.5 -95q78 -80 118 -148.5t40 -164.5q0 -145 -97.5 -232t-254.5 -87q-119 0 -201 38l31 134q70 -37 159.5 -37t141 48t51.5 122 q0 104 -111 215q-47 47 -74.5 79.5t-50 84t-22.5 104.5q0 162 176 250q18 39 18 90q0 106 -56 161.5t-142 55.5q-229 0 -230 -397v-928h-172z" />
<glyph unicode="&#xe0;" horiz-adv-x="915" d="M68 264q0 178 143 272.5t399 92.5v24q0 43 -7 78t-27.5 72t-63.5 57.5t-106 20.5q-133 0 -230 -68l-39 119q123 80 297 80q348 0 348 -391v-388q0 -156 15 -233h-156l-14 119h-6q-94 -139 -273 -139q-129 0 -204.5 82.5t-75.5 201.5zM172 1413h186l174 -289h-120z M240 283q0 -86 44 -129t109 -43q82 0 138.5 45t74.5 114q8 25 8 58v180q-374 4 -374 -225z" />
<glyph unicode="&#xe1;" horiz-adv-x="915" d="M68 264q0 178 143 272.5t399 92.5v24q0 43 -7 78t-27.5 72t-63.5 57.5t-106 20.5q-133 0 -230 -68l-39 119q123 80 297 80q348 0 348 -391v-388q0 -156 15 -233h-156l-14 119h-6q-94 -139 -273 -139q-129 0 -204.5 82.5t-75.5 201.5zM240 283q0 -86 44 -129t109 -43 q82 0 138.5 45t74.5 114q8 25 8 58v180q-374 4 -374 -225zM356 1124l172 289h189l-240 -289h-121z" />
<glyph unicode="&#xe2;" horiz-adv-x="915" d="M68 264q0 178 143 272.5t399 92.5v24q0 43 -7 78t-27.5 72t-63.5 57.5t-106 20.5q-133 0 -230 -68l-39 119q123 80 297 80q348 0 348 -391v-388q0 -156 15 -233h-156l-14 119h-6q-94 -139 -273 -139q-129 0 -204.5 82.5t-75.5 201.5zM207 1124l182 289h119l186 -289h-131 l-112 189h-5l-110 -189h-129zM240 283q0 -86 44 -129t109 -43q82 0 138.5 45t74.5 114q8 25 8 58v180q-374 4 -374 -225z" />
<glyph unicode="&#xe3;" horiz-adv-x="915" d="M68 264q0 178 143 272.5t399 92.5v24q0 43 -7 78t-27.5 72t-63.5 57.5t-106 20.5q-133 0 -230 -68l-39 119q123 80 297 80q348 0 348 -391v-388q0 -156 15 -233h-156l-14 119h-6q-94 -139 -273 -139q-129 0 -204.5 82.5t-75.5 201.5zM211 1157q-2 94 34 151.5t101 57.5 q41 0 119 -43q57 -35 84 -35q49 0 55 84h92q4 -201 -137 -201q-39 0 -117 41q-63 35 -84 35q-47 0 -53 -90h-94zM240 283q0 -86 44 -129t109 -43q82 0 138.5 45t74.5 114q8 25 8 58v180q-374 4 -374 -225z" />
<glyph unicode="&#xe4;" horiz-adv-x="915" d="M68 264q0 178 143 272.5t399 92.5v24q0 43 -7 78t-27.5 72t-63.5 57.5t-106 20.5q-133 0 -230 -68l-39 119q123 80 297 80q348 0 348 -391v-388q0 -156 15 -233h-156l-14 119h-6q-94 -139 -273 -139q-129 0 -204.5 82.5t-75.5 201.5zM178 1266q0 41 30 70.5t70.5 29.5 t68.5 -28.5t28 -71.5t-26.5 -72t-69.5 -29h-3q-43 0 -70.5 29t-27.5 72zM240 283q0 -86 44 -129t109 -43q82 0 138.5 45t74.5 114q8 25 8 58v180q-374 4 -374 -225zM539 1266q0 41 28.5 70.5t71.5 29.5q41 0 68.5 -28.5t27.5 -71.5t-26.5 -72t-69.5 -29h-4q-41 0 -68.5 30 t-27.5 71z" />
<glyph unicode="&#xe5;" horiz-adv-x="915" d="M68 264q0 178 143 272.5t399 92.5v24q0 43 -7 78t-27.5 72t-64.5 57.5t-108 20.5q-131 0 -227 -68l-39 119q123 80 297 80q348 0 348 -391v-388q0 -156 15 -233h-156l-14 119h-6q-94 -139 -273 -139q-129 0 -204.5 82.5t-75.5 201.5zM240 283q0 -86 44 -129t109 -43 q82 0 138.5 45t74.5 114q8 25 8 58v180q-374 4 -374 -225zM252 1280q0 82 55 136t148 54h2q90 0 144 -53t54 -135q0 -78 -57 -131t-143 -53q-88 0 -145.5 53t-57.5 129zM354 1282q0 -43 28 -75.5t73 -32.5q47 0 74.5 31.5t27.5 78.5t-27.5 79t-74.5 32h-2q-45 0 -72 -33 t-27 -80z" />
<glyph unicode="&#xe6;" horiz-adv-x="1454" d="M68 262q0 172 144 265.5t400 88.5v48q0 31 -9 64.5t-29.5 70.5t-65.5 60.5t-107 23.5q-129 0 -225 -70l-41 117q129 82 285 82q233 0 291 -201h6q96 201 313 201q96 0 168 -44t111 -115t56 -145.5t17 -148.5q0 -37 -4 -78h-602q-2 -184 77 -275t214 -91t238 51l32 -121 q-119 -66 -297 -65q-119 0 -213 56t-131 154h-6q-41 -98 -129 -154t-205 -56q-135 0 -211.5 81.5t-76.5 200.5zM236 276q0 -80 46 -122.5t113 -42.5q80 -2 136.5 44t74.5 117q10 37 10 68v160q-380 9 -380 -224zM776 604h441q4 111 -48.5 197t-156.5 86q-109 0 -170.5 -88.5 t-65.5 -194.5z" />
<glyph unicode="&#xe7;" horiz-adv-x="827" d="M74 487q0 227 135 376t356 149q137 0 215 -47l-37 -134q-82 41 -180 41q-147 0 -230 -108.5t-83 -269.5q0 -170 86 -270.5t225 -100.5q106 0 189 43l28 -131q-86 -47 -227 -53l-49 -84q57 -10 98 -50.5t41 -97.5q0 -84 -59.5 -126t-145.5 -42q-76 0 -141 35l33 90 q47 -29 108 -29q84 0 84 66q-2 74 -155 86l84 160q-172 25 -273.5 157.5t-101.5 339.5z" />
<glyph unicode="&#xe8;" horiz-adv-x="942" d="M74 481q0 231 116.5 381t311.5 150q102 0 178 -43t115 -114t57 -145.5t18 -154.5q0 -55 -6 -86h-622q2 -184 88 -268t219 -84q139 0 242 47l28 -125q-119 -57 -295 -57q-211 0 -330.5 135t-119.5 364zM240 1413h188l172 -289h-121zM244 594h461q2 119 -51.5 205 t-168.5 86q-109 0 -170 -88t-71 -203z" />
<glyph unicode="&#xe9;" horiz-adv-x="942" d="M74 481q0 231 116.5 381t311.5 150q102 0 178 -43t115 -114t57 -145.5t18 -154.5q0 -55 -6 -86h-622q2 -184 88 -268t219 -84q139 0 242 47l28 -125q-119 -57 -295 -57q-211 0 -330.5 135t-119.5 364zM244 594h461q2 119 -51.5 205t-168.5 86q-109 0 -170 -88t-71 -203z M408 1124l174 289h186l-240 -289h-120z" />
<glyph unicode="&#xea;" horiz-adv-x="942" d="M74 481q0 231 116.5 381t311.5 150q102 0 178 -43t115 -114t57 -145.5t18 -154.5q0 -55 -6 -86h-622q2 -184 88 -268t219 -84q139 0 242 47l28 -125q-119 -57 -295 -57q-211 0 -330.5 135t-119.5 364zM244 594h461q2 119 -51.5 205t-168.5 86q-109 0 -170 -88t-71 -203z M252 1124l184 289h119l186 -289h-131l-112 189h-4l-111 -189h-131z" />
<glyph unicode="&#xeb;" horiz-adv-x="942" d="M74 481q0 231 116.5 381t311.5 150q102 0 178 -43t115 -114t57 -145.5t18 -154.5q0 -55 -6 -86h-622q2 -184 88 -268t219 -84q139 0 242 47l28 -125q-119 -57 -295 -57q-211 0 -330.5 135t-119.5 364zM227 1266q0 41 30 70.5t71 29.5t68.5 -28.5t27.5 -71.5t-26.5 -72 t-69.5 -29h-2q-43 0 -71 29t-28 72zM244 594h461q2 119 -51.5 205t-166.5 86q-109 0 -171 -88t-72 -203zM588 1266q0 41 28.5 70.5t71.5 29.5q41 0 68.5 -28.5t27.5 -71.5t-26.5 -72t-69.5 -29h-4q-41 0 -68.5 30t-27.5 71z" />
<glyph unicode="&#xec;" horiz-adv-x="448" d="M-57 1413h186l174 -289h-121zM139 0v991h172v-991h-172z" />
<glyph unicode="&#xed;" horiz-adv-x="448" d="M131 1124l172 289h186l-237 -289h-121zM139 0v991h172v-991h-172z" />
<glyph unicode="&#xee;" horiz-adv-x="448" d="M-16 1124l182 289h119l186 -289h-133l-111 189h-4l-110 -189h-129zM139 0v991h172v-991h-172z" />
<glyph unicode="&#xef;" horiz-adv-x="448" d="M-55 1266q0 41 29.5 70.5t70.5 29.5t69.5 -28.5t28.5 -71.5t-27.5 -72t-70.5 -29h-2q-43 0 -70.5 29t-27.5 72zM139 0v991h172v-991h-172zM307 1266q0 41 29 70.5t72 29.5q41 0 68.5 -28.5t27.5 -71.5t-26.5 -72t-69.5 -29h-5q-41 0 -68.5 30t-27.5 71z" />
<glyph unicode="&#xf0;" horiz-adv-x="1009" d="M74 485.5q0 233.5 120.5 368.5t286.5 139q111 4 195 -69l4 6q-74 129 -205 235l-260 -127l-41 84l219 109q-80 66 -194 129l84 104q143 -78 254 -166l237 119l43 -84l-203 -100q154 -141 232 -305q86 -178 86 -414q0 -266 -128 -400t-306 -134q-186 0 -305 136 t-119 369.5zM250 489q0 -154 68.5 -266t181.5 -112h2q119 0 186.5 110.5t67.5 272.5q0 195 -60 282q-63 98 -190 98q-90 0 -150.5 -65.5t-83 -148.5t-22.5 -171z" />
<glyph unicode="&#xf1;" horiz-adv-x="1044" d="M131 991h152l10 -149h4q37 72 114.5 121t182.5 49q55 0 107.5 -19.5t100.5 -62.5t77.5 -124t29.5 -192v-614h-172v592q0 276 -202 276q-76 0 -134.5 -50t-78.5 -128q-12 -35 -13 -84v-606h-170v727q0 100 -8 264zM283 1157q-4 96 32.5 152.5t100.5 56.5q39 0 121 -43 q57 -35 84 -35q49 0 55 84h92q4 -201 -137 -201q-41 0 -119 41q-63 35 -84 35q-47 0 -53 -88z" />
<glyph unicode="&#xf2;" horiz-adv-x="1021" d="M74 489q0 248 126 385.5t318.5 137.5t311 -137.5t118.5 -372.5q0 -260 -132 -391t-310 -131h-2q-186 0 -308 135.5t-122 373.5zM250 494q0 -158 70.5 -270.5t189.5 -112.5h2q117 0 188.5 113.5t71.5 273.5q0 90 -23.5 173t-85 146.5t-151.5 63.5q-131 0 -196.5 -116.5 t-65.5 -270.5zM256 1413h186l174 -289h-120z" />
<glyph unicode="&#xf3;" horiz-adv-x="1021" d="M74 489q0 248 126 385.5t318.5 137.5t311 -137.5t118.5 -372.5q0 -260 -132 -391t-310 -131h-2q-186 0 -308 135.5t-122 373.5zM250 494q0 -158 70.5 -270.5t189.5 -112.5h2q117 0 188.5 113.5t71.5 273.5q0 90 -23.5 173t-85 146.5t-151.5 63.5q-131 0 -196.5 -116.5 t-65.5 -270.5zM412 1124l174 289h186l-240 -289h-120z" />
<glyph unicode="&#xf4;" horiz-adv-x="1021" d="M74 489q0 248 126 385.5t318.5 137.5t311 -137.5t118.5 -372.5q0 -260 -132 -391t-310 -131h-2q-186 0 -308 135.5t-122 373.5zM250 494q0 -158 70.5 -270.5t189.5 -112.5h2q117 0 188.5 113.5t71.5 273.5q0 90 -23.5 173t-85 146.5t-151.5 63.5q-131 0 -196.5 -116.5 t-65.5 -270.5zM266 1124l185 289h118l187 -289h-131l-113 189h-4l-111 -189h-131z" />
<glyph unicode="&#xf5;" horiz-adv-x="1021" d="M74 489q0 248 126 385.5t318.5 137.5t311 -137.5t118.5 -372.5q0 -260 -132 -391t-310 -131h-2q-186 0 -308 135.5t-122 373.5zM250 494q0 -158 70.5 -270.5t189.5 -112.5h2q117 0 188.5 113.5t71.5 273.5q0 90 -23.5 173t-85 146.5t-151.5 63.5q-131 0 -196.5 -116.5 t-65.5 -270.5zM268 1157q-2 96 35 152.5t100 56.5q39 0 121 -43q57 -35 84 -35q49 0 56 84h92q4 -201 -138 -201q-41 0 -118 41q-63 35 -84 35q-47 0 -54 -90h-94z" />
<glyph unicode="&#xf6;" horiz-adv-x="1021" d="M74 489q0 248 126 385.5t318.5 137.5t311 -137.5t118.5 -372.5q0 -260 -132 -391t-310 -131h-2q-186 0 -308 135.5t-122 373.5zM231 1266q0 41 30 70.5t71 29.5t68.5 -28.5t27.5 -71.5t-26.5 -72t-69.5 -29h-2q-43 0 -71 29t-28 72zM250 494q0 -158 70.5 -270.5 t189.5 -112.5h2q117 0 188.5 113.5t71.5 273.5q0 90 -23.5 173t-85 146.5t-151.5 63.5q-131 0 -196.5 -116.5t-65.5 -270.5zM594 1266q0 41 28.5 70.5t71.5 29.5q41 0 69 -28.5t28 -71.5t-27 -72t-70 -29h-4q-41 0 -68.5 30t-27.5 71z" />
<glyph unicode="&#xf7;" horiz-adv-x="1220" d="M82 487v119h1057v-119h-1057zM508 186q0 47 29.5 78t74.5 31t74 -31t29 -78t-29 -77.5t-76 -30.5h-2q-45 0 -72.5 30.5t-27.5 77.5zM508 907q0 47 29.5 78t74.5 31t74 -31t29 -78t-29 -77.5t-76 -30.5h-2q-45 0 -72.5 30.5t-27.5 77.5z" />
<glyph unicode="&#xf8;" horiz-adv-x="1021" d="M74 492q0 246 126 383t314 137h2q123 0 223 -66l78 117l82 -51l-82 -131q131 -141 131 -379q0 -258 -131 -390t-305 -132q-127 0 -227 65l-78 -121l-78 60l80 125q-135 141 -135 383zM242 494q0 -137 59 -242l4 -2l359 569q-55 61 -154 62q-94 0 -157.5 -63.5t-87 -146.5 t-23.5 -177zM360 170q59 -59 148 -59q127 0 199.5 111.5t72.5 271.5q0 135 -57 237l-4 2z" />
<glyph unicode="&#xf9;" horiz-adv-x="1034" d="M133 397v594h172v-565q0 -303 195 -303q78 0 132 47t77 109q14 47 14 92v620h172v-721q0 -115 8 -270h-151l-11 143h-4q-39 -66 -113.5 -114.5t-179.5 -48.5q-137 0 -224 98t-87 319zM254 1413h186l172 -289h-118z" />
<glyph unicode="&#xfa;" horiz-adv-x="1034" d="M133 397v594h172v-565q0 -303 195 -303q78 0 132 47t77 109q14 47 14 92v620h172v-721q0 -115 8 -270h-151l-11 143h-4q-39 -66 -113.5 -114.5t-179.5 -48.5q-137 0 -224 98t-87 319zM438 1124l172 289h187l-238 -289h-121z" />
<glyph unicode="&#xfb;" horiz-adv-x="1034" d="M133 397v594h172v-565q0 -303 195 -303q78 0 132 47t77 109q14 47 14 92v620h172v-721q0 -115 8 -270h-151l-11 143h-4q-39 -66 -113.5 -114.5t-179.5 -48.5q-137 0 -224 98t-87 319zM272 1124l185 289h118l187 -289h-133l-111 189h-4l-111 -189h-131z" />
<glyph unicode="&#xfc;" horiz-adv-x="1034" d="M133 397v594h172v-565q0 -303 195 -303q78 0 132 47t77 109q14 47 14 92v620h172v-721q0 -115 8 -270h-151l-11 143h-4q-39 -66 -113.5 -114.5t-179.5 -48.5q-137 0 -224 98t-87 319zM244 1266q0 41 29.5 70.5t70.5 29.5t68.5 -28.5t27.5 -71.5t-26.5 -72t-69.5 -29h-2 q-43 0 -70.5 29t-27.5 72zM604 1266q0 41 29 70.5t72 29.5q41 0 68.5 -28.5t27.5 -71.5t-26.5 -72t-69.5 -29h-5q-41 0 -68.5 30t-27.5 71z" />
<glyph unicode="&#xfd;" horiz-adv-x="888" d="M20 991h187l192 -581q35 -115 56 -203h6q20 86 55 207l174 577h180l-237 -684q-88 -254 -157.5 -398.5t-153.5 -227.5q-102 -100 -209 -127l-50 145q84 35 154 98q84 84 131 193q14 35 14 45q0 12 -10 43zM369 1124l172 289h186l-238 -289h-120z" />
<glyph unicode="&#xfe;" horiz-adv-x="1060" d="M137 -401v1769h172v-522h4q98 166 297 166q164 0 270.5 -138.5t106.5 -367.5q0 -256 -119.5 -391t-285.5 -135q-180 0 -269 143h-4v-524h-172zM309 383q0 -49 17 -88q27 -86 89 -131t138 -45q121 0 190.5 105.5t69.5 277.5q0 158 -67.5 263t-188.5 105q-78 0 -142.5 -53 t-88.5 -137q-16 -53 -17 -92v-205z" />
<glyph unicode="&#xff;" horiz-adv-x="888" d="M20 991h187l190 -581q33 -100 58 -203h6q25 104 57 207l172 577h180l-237 -684q-88 -254 -157.5 -398.5t-156.5 -227.5q-100 -100 -206 -127l-50 145q80 33 152 98q84 80 133 193q12 31 12 45q0 20 -10 43zM182 1266q0 41 30 70.5t71 29.5t68.5 -28.5t27.5 -71.5 t-26.5 -72t-69.5 -29h-2q-43 0 -71 29t-28 72zM545 1266q0 41 28.5 70.5t71.5 29.5q41 0 68.5 -28.5t27.5 -71.5t-26.5 -72t-69.5 -29h-4q-41 0 -68.5 30t-27.5 71z" />
<glyph unicode="&#x152;" horiz-adv-x="1656" d="M72 682q0 338 172 528.5t450 190.5q82 0 150 -10q109 -10 114 -11h601v-145h-508v-442h477v-144h-477v-504h536v-145h-645q-33 -2 -117 -10q-76 -10 -143 -10q-293 0 -451.5 198.5t-158.5 503.5zM252 690q0 -270 123 -418.5t334 -148.5q111 0 170 24v1082q-80 29 -187 28 q-199 0 -319.5 -150.5t-120.5 -416.5z" />
<glyph unicode="&#x153;" horiz-adv-x="1611" d="M74 492q0 242 122.5 381t309.5 139q117 0 208 -58.5t130 -167.5h4q51 109 137 167.5t195 58.5q100 0 173.5 -43t112.5 -115t57.5 -146.5t18.5 -152.5q0 -47 -4 -84h-610q2 -178 84 -267t217 -89q119 0 237 51l31 -123q-106 -63 -295 -63q-258 0 -356 225h-4 q-47 -111 -141.5 -168t-204.5 -57q-184 0 -303 137t-119 375zM250 494q0 -158 70.5 -270.5t189.5 -112.5q121 0 188.5 109.5t67.5 275.5q0 156 -63.5 270.5t-192.5 114.5h-2q-92 0 -153.5 -65.5t-83 -147.5t-21.5 -174zM928 596h448q4 117 -48 203t-163 86q-109 0 -169 -88 t-68 -201z" />
<glyph unicode="&#x178;" horiz-adv-x="1017" d="M25 1380h192l172 -370q86 -186 127 -293h4q39 109 127 295l174 368h191l-418 -792v-588h-172v586zM248 1567q0 41 28.5 70.5t69.5 29.5t67.5 -28.5t26.5 -71.5q0 -45 -26.5 -74t-69.5 -29h-2q-41 0 -67.5 30t-26.5 73zM614 1567q0 41 28 70.5t69 29.5q43 0 69.5 -28.5 t26.5 -71.5q0 -45 -26.5 -74t-69.5 -29h-2q-41 0 -68 30t-27 73z" />
<glyph unicode="&#x2c6;" horiz-adv-x="614" d="M63 1124l185 289h119l186 -289h-133l-111 189h-4l-110 -189h-132z" />
<glyph unicode="&#x2dc;" horiz-adv-x="614" d="M66 1159q-2 94 34.5 150.5t100.5 56.5q37 0 118 -43q57 -35 84 -35q49 0 56 84h92q4 -201 -137 -201q-39 0 -117 41q-63 35 -84 35q-47 0 -53 -88h-94z" />
<glyph unicode="&#x2000;" horiz-adv-x="897" />
<glyph unicode="&#x2001;" horiz-adv-x="1794" />
<glyph unicode="&#x2002;" horiz-adv-x="897" />
<glyph unicode="&#x2003;" horiz-adv-x="1794" />
<glyph unicode="&#x2004;" horiz-adv-x="598" />
<glyph unicode="&#x2005;" horiz-adv-x="448" />
<glyph unicode="&#x2006;" horiz-adv-x="299" />
<glyph unicode="&#x2007;" horiz-adv-x="299" />
<glyph unicode="&#x2008;" horiz-adv-x="223" />
<glyph unicode="&#x2009;" horiz-adv-x="358" />
<glyph unicode="&#x200a;" horiz-adv-x="98" />
<glyph unicode="&#x2010;" horiz-adv-x="610" d="M61 483v129h488v-129h-488z" />
<glyph unicode="&#x2011;" horiz-adv-x="610" d="M61 483v129h488v-129h-488z" />
<glyph unicode="&#x2012;" horiz-adv-x="610" d="M61 483v129h488v-129h-488z" />
<glyph unicode="&#x2013;" horiz-adv-x="1024" d="M61 465v119h902v-119h-902z" />
<glyph unicode="&#x2014;" horiz-adv-x="2048" d="M61 465v119h1926v-119h-1926z" />
<glyph unicode="&#x2018;" horiz-adv-x="405" d="M63 918q35 127 91.5 269t97.5 212l108 14q-84 -233 -118 -475z" />
<glyph unicode="&#x2019;" horiz-adv-x="405" d="M61 918q84 233 119 475l178 20q-86 -307 -188 -483z" />
<glyph unicode="&#x201a;" horiz-adv-x="405" d="M43 -242q84 233 119 475l178 21q-35 -127 -91 -269.5t-97 -211.5z" />
<glyph unicode="&#x201c;" horiz-adv-x="696" d="M61 918q35 125 91.5 268t99.5 213l106 14q-84 -233 -118 -475zM356 918q33 125 89.5 267t99.5 214l108 14q-82 -227 -121 -475z" />
<glyph unicode="&#x201d;" horiz-adv-x="696" d="M59 918q82 227 121 475l176 20q-33 -125 -89 -267t-99 -216zM354 918q84 233 119 475l178 20q-35 -125 -91 -268.5t-99 -214.5z" />
<glyph unicode="&#x201e;" horiz-adv-x="698" d="M41 -242q82 227 121 475l176 21q-33 -125 -89 -267.5t-99 -213.5zM336 -242q84 233 119 475l178 21q-35 -125 -91.5 -268.5t-99.5 -212.5z" />
<glyph unicode="&#x2022;" horiz-adv-x="561" d="M72 532q-2 88 60.5 149.5t148.5 61.5t147 -61t61 -149.5t-60 -148.5t-148 -60h-2q-86 0 -146.5 60t-60.5 148z" />
<glyph unicode="&#x2026;" horiz-adv-x="2048" d="M225 104q0 55 33 91t84 36q53 0 85 -34.5t32 -92.5q0 -55 -32 -89.5t-85 -34.5h-2q-49 0 -82 35.5t-33 88.5zM907 104q0 55 33 91t84 36q53 0 85 -34.5t32 -92.5q0 -55 -32 -89.5t-85 -34.5h-2q-49 0 -82 35.5t-33 88.5zM1589 104q0 55 33 91t84 36q53 0 85 -34.5 t32 -92.5q0 -55 -32 -89.5t-85 -34.5h-2q-49 0 -82 35.5t-33 88.5z" />
<glyph unicode="&#x202f;" horiz-adv-x="358" />
<glyph unicode="&#x2039;" horiz-adv-x="495" d="M57 516l252 371h142l-256 -371l256 -371h-142z" />
<glyph unicode="&#x203a;" horiz-adv-x="495" d="M45 145l256 371l-256 371h139l254 -371l-252 -371h-141z" />
<glyph unicode="&#x205f;" horiz-adv-x="448" />
<glyph unicode="&#x20ac;" d="M25 514v100h110v31q0 37 4 90h-112v101h125q35 223 161 356q147 160 369 160q129 0 244 -60l-39 -135q-90 53 -203 53q-147 0 -240 -100q-92 -94 -118 -274h503v-101h-518q-4 -25 -4 -84v-37h522v-100h-510q20 -180 105 -276q96 -113 260 -113q119 0 223 59l33 -127 q-111 -78 -274 -77q-236 0 -377 167q-119 131 -146 367h-118z" />
<glyph unicode="&#x2122;" horiz-adv-x="1200" d="M59 1290v90h435v-90h-164v-467h-107v467h-164zM526 823l39 557h162l88 -270q10 -35 33 -141h2q4 16 11 45.5t13.5 53.5t10.5 40l90 272h153l41 -557h-106l-21 328q0 37 -4 156h-4q-14 -51 -43 -166l-94 -310h-111l-90 318q-33 135 -37 158h-6q0 -53 -4 -156l-20 -328 h-103z" />
<glyph unicode="&#xe000;" horiz-adv-x="990" d="M0 990h990v-990h-990v990z" />
<glyph unicode="&#xfb01;" horiz-adv-x="1007" d="M25 860v131h135v58q0 184 105.5 299.5t305.5 115.5q150 0 234 -61l-45 -131q-86 51 -197 51q-231 0 -231 -283v-49h536v-991h-172v860h-364v-860h-172v860h-135z" />
<glyph unicode="&#xfb02;" horiz-adv-x="1007" d="M25 860v131h135v47q0 213 131 330q113 96 299 96q164 0 280 -61v-1403h-172v1305q-53 25 -137 24q-121 0 -175 -79t-54 -203v-56h215v-131h-215v-860h-172v860h-135z" />
<glyph unicode="&#xfb03;" horiz-adv-x="1564" d="M25 860v131h135v37q0 207 114 322q90 90 242 90q86 0 164 -41l-49 -127q-53 31 -115 31q-78 0 -125 -54q-59 -68 -59 -221v-37h387v58q0 184 105.5 299.5t305.5 115.5q141 0 230 -57l-47 -133q-82 49 -191 49q-231 0 -231 -283v-49h536v-991h-172v860h-364v-860h-172v860 h-387v-860h-172v860h-135z" />
<glyph unicode="&#xfb04;" horiz-adv-x="1564" d="M25 860v131h135v27q0 217 112 330q96 92 250 92q84 0 158 -35l-47 -131q-51 29 -115 29q-78 0 -127 -54q-59 -68 -59 -219v-39h387v47q0 213 131 330q113 96 299 96q162 0 278 -61v-1403h-172v1305q-53 25 -137 24q-119 0 -173 -79t-54 -203v-56h213v-131h-213v-860h-172 v860h-387v-860h-172v860h-135z" />
</font>
</defs>
</svg>
