<?xml version="1.0" standalone="no"?>
<!DOCTYPE svg PUBLIC "-//W3C//DTD SVG 1.1//EN" "http://www.w3.org/Graphics/SVG/1.1/DTD/svg11.dtd" >
<svg xmlns="http://www.w3.org/2000/svg">
<metadata>
This is a custom SVG webfont generated by Font Squirrel.
Copyright   : Copyright  2000 Adobe Systems Incorporated All Rights Reserved US Patent Des pending
Designer    : Robert Slimbach and Carol Twombly
Foundry URL : httpwwwadobecomtype
</metadata>
<defs>
<font id="MyriadProLightCondensed" horiz-adv-x="737" >
<font-face units-per-em="2048" ascent="1536" descent="-512" />
<missing-glyph horiz-adv-x="317" />
<glyph unicode=" "  horiz-adv-x="317" />
<glyph unicode="&#x09;" horiz-adv-x="317" />
<glyph unicode="&#xa0;" horiz-adv-x="317" />
<glyph unicode="!" horiz-adv-x="376" d="M121 61.5q0 34.5 18.5 57t48.5 22.5q68 0 68 -80q0 -78 -68 -77h-2q-29 0 -47 21.5t-18 56zM139 1380h101l-15 -1036h-71z" />
<glyph unicode="&#x22;" horiz-adv-x="606" d="M125 1399h100l-18 -445h-64zM383 1399h100l-18 -445h-64z" />
<glyph unicode="#" d="M55 414v78h133l48 360h-136v74h146l53 405h74l-54 -405h168l54 405h73l-53 -405h121v-74h-131l-45 -360h135v-74h-145l-54 -418h-77l53 418h-164l-53 -418h-76l53 414h-123zM264 492h166l45 360h-166z" />
<glyph unicode="$" d="M100 111l35 69q100 -72 205 -71q98 0 155.5 71.5t57.5 179.5q0 100 -46 172t-142 130q-55 33 -86 53t-78 62t-69.5 94.5t-22.5 115.5q0 121 66.5 204t156.5 101v193h76v-185q127 0 192 -57l-35 -69q-86 51 -178 51q-86 0 -138 -64.5t-52 -146.5q0 -72 28.5 -124t65.5 -80 t117 -75q233 -135 233 -360q0 -141 -66.5 -227.5t-166.5 -106.5v-211h-76v203q-128 0 -232 78z" />
<glyph unicode="%" horiz-adv-x="1306" d="M78 946.5q0 196.5 69.5 299t169.5 102.5h2q100 0 170 -102.5t70 -299t-70.5 -298t-171 -101.5t-170 101.5t-69.5 298zM162 946q0 -51 6 -102t22.5 -105.5t49 -88.5t77.5 -34q47 0 80 34t48.5 88.5t22.5 105.5t7 102t-7 102.5t-22.5 106.5t-48 89t-80.5 34h-2 q-59 0 -96 -62.5t-47 -130t-10 -139.5zM262 -33l703 1395h75l-702 -1395h-76zM748 383q0 197 69.5 299t169.5 102h2q100 0 170 -102t70 -299t-71 -298t-171 -101t-169.5 101t-69.5 298zM831 383q0 -117 38 -223.5t118 -106.5q47 0 80 34t48 88t22.5 105.5t7.5 102.5 t-7.5 102.5t-22.5 106.5t-48 89t-80 34h-2q-59 0 -96 -62.5t-47.5 -130t-10.5 -139.5z" />
<glyph unicode="&#x26;" horiz-adv-x="958" d="M72 362q0 236 207 406l2 6q-100 170 -101 316q0 125 65.5 216t178.5 91q82 0 143.5 -67.5t61.5 -201.5q0 -106 -56.5 -192t-179.5 -176v-6q111 -190 299 -453q84 182 96 442h89q-27 -319 -138 -507q14 -27 166 -236h-104q-8 10 -43 57t-68 97q-55 -82 -135 -126t-162 -44 q-158 0 -239.5 114t-81.5 264zM164 369q0 -125 62.5 -215.5t176.5 -90.5h3q147 0 239 154q-188 260 -328 490q-153 -141 -153 -338zM268 1098q0 -143 84 -281q190 145 191 307q0 80 -34 136.5t-101 56.5h-2q-66 0 -102 -61.5t-36 -157.5z" />
<glyph unicode="'" horiz-adv-x="348" d="M125 1399h100l-18 -445h-64z" />
<glyph unicode="(" horiz-adv-x="512" d="M154 586q0 506 217 831h80q-211 -336 -211 -831.5t211 -831.5h-80q-217 330 -217 832z" />
<glyph unicode=")" horiz-adv-x="512" d="M61 -246q211 336 211 831.5t-211 831.5h80q217 -326 217 -831q0 -502 -217 -832h-80z" />
<glyph unicode="*" horiz-adv-x="747" d="M61 1042v86l261 -22v4l-152 238l70 41l131 -248h4l123 256l75 -41l-157 -250v-4l270 26v-86l-268 19v-4l162 -238l-78 -47l-129 254h-4l-127 -262l-74 49l158 246v4z" />
<glyph unicode="+" horiz-adv-x="1220" d="M82 508v78h487v504h82v-504h488v-78h-488v-508h-82v508h-487z" />
<glyph unicode="," horiz-adv-x="348" d="M45 -258q25 66 58.5 203t48.5 231l120 21q-27 -109 -79 -253.5t-78 -191.5z" />
<glyph unicode="-" horiz-adv-x="595" d="M61 477v78h474v-78h-474z" />
<glyph unicode="." horiz-adv-x="348" d="M102 65.5q0 36.5 19.5 60.5t52.5 24q72 0 72 -84q0 -82 -72 -82h-2q-31 0 -50.5 22.5t-19.5 59z" />
<glyph unicode="/" horiz-adv-x="575" d="M53 -82l416 1479h84l-416 -1479h-84z" />
<glyph unicode="0" d="M59 666q0 348 88.5 515t233.5 167q127 0 212 -169t85 -513q0 -348 -88 -515t-232 -167h-2q-127 0 -212 169t-85 513zM150 665.5q0 -264.5 55 -434.5t164 -170h2q109 0 163 170t54 434.5t-55.5 434.5t-164 170t-163.5 -170t-55 -434.5z" />
<glyph unicode="1" d="M152 1163l266 168h65v-1331h-86v1229h-4l-219 -135z" />
<glyph unicode="2" d="M76 0v53l98 144q188 274 250 391q117 227 117 407q0 131 -51.5 202t-149.5 71q-25 0 -49.5 -5.5t-41 -11.5t-34.5 -16t-26.5 -16.5t-21.5 -16.5t-15 -12l-33 63q94 94 237 95q131 0 203 -95.5t72 -255.5q0 -168 -89 -352t-251 -422l-94 -139v-4h465v-80h-586z" />
<glyph unicode="3" d="M61 47l33 72q88 -57 189 -58q111 0 179 82t68 228q0 143 -75.5 229t-204.5 86h-37v72h33q84 0 167 74.5t83 201.5q0 115 -51.5 175.5t-137.5 60.5q-78 0 -166 -70l-32 68q88 80 217 80q119 0 189.5 -83t70.5 -214q0 -102 -52.5 -187.5t-150.5 -132.5v-4q98 -23 168 -111 t70 -245q0 -170 -93.5 -278.5t-248.5 -108.5q-134 0 -218 63z" />
<glyph unicode="4" d="M45 397v60l432 874h88v-858h152v-76h-152v-397h-86v397h-434zM147 473h332v440q0 125 10 289h-8q-61 -145 -123 -278l-211 -447v-4z" />
<glyph unicode="5" d="M49 45l33 72q86 -55 182 -56q113 0 194 93.5t81 263.5q0 166 -83 251t-227 85q-61 0 -110 -9l92 586h430v-80h-362l-70 -426q18 6 55 6q63 0 135 -26.5t119 -73.5q111 -111 111 -303q0 -197 -105.5 -320.5t-261.5 -123.5q-133 0 -213 61z" />
<glyph unicode="6" d="M66 520q0 354 143 588q113 180 321 227q39 8 78 13v-82q-29 0 -84 -13q-303 -80 -368 -559h4q92 141 237 142q125 0 202 -110t77 -298q0 -201 -79 -322.5t-216 -121.5q-158 0 -236.5 150t-78.5 386zM152 524q2 -236 65.5 -349.5t165.5 -113.5h2q82 0 141.5 79t59.5 268 q0 180 -58.5 265t-154.5 85q-63 0 -120.5 -44t-90.5 -132q-10 -31 -10 -58z" />
<glyph unicode="7" d="M74 1251v80h590v-45l-439 -1286h-88l432 1247v4h-495z" />
<glyph unicode="8" d="M68 311q0 227 229 400l-2 4q-82 57 -132 141t-50 170q0 143 79.5 232.5t188.5 89.5h2q131 0 191.5 -94.5t60.5 -209.5q0 -193 -182 -327v-6q217 -162 217 -373q0 -145 -83 -249.5t-222 -104.5q-102 0 -173 56t-97.5 126.5t-26.5 144.5zM158 336q0 -127 56 -201t153 -74h2 q88 0 149.5 64.5t61.5 204.5q0 117 -54.5 193.5t-158.5 152.5q-96 -59 -152.5 -151.5t-56.5 -188.5zM203 1040q0 -76 33.5 -137t62.5 -85.5t88 -67.5q158 121 158 280q0 113 -45 176.5t-125 63.5h-2q-74 0 -122 -63t-48 -167z" />
<glyph unicode="9" d="M68 907q0 188 85 314.5t214 126.5q154 0 230.5 -150.5t76.5 -376.5q0 -371 -150 -600q-115 -176 -295 -223q-57 -14 -100 -14v82q41 0 84 12q117 31 197 121q141 162 172 444h-4q-96 -129 -234 -129q-123 0 -199.5 107.5t-76.5 285.5zM158 915q0 -168 57 -245.5 t156 -77.5q59 0 114.5 39t87.5 110q12 29 13 50q0 246 -61.5 362.5t-162.5 116.5h-2q-78 0 -140 -85.5t-62 -269.5z" />
<glyph unicode=":" horiz-adv-x="348" d="M102 65.5q0 36.5 19.5 60.5t52.5 24q72 0 72 -84q0 -82 -72 -82h-2q-31 0 -50.5 22.5t-19.5 59zM102 866q0 37 19.5 60.5t52.5 23.5q72 0 72 -84q0 -82 -72 -82h-2q-31 0 -50.5 22.5t-19.5 59.5z" />
<glyph unicode=";" horiz-adv-x="348" d="M45 -258q25 66 58.5 203t48.5 231l120 21q-27 -109 -79 -253.5t-78 -191.5zM133 866q0 37 19.5 60.5t52.5 23.5q72 0 71 -84q0 -82 -71 -82h-2q-31 0 -50.5 22.5t-19.5 59.5z" />
<glyph unicode="&#x3c;" horiz-adv-x="1220" d="M145 506v78l930 506v-93l-839 -450v-4l839 -451v-92z" />
<glyph unicode="=" horiz-adv-x="1220" d="M82 319v78h1057v-78h-1057zM82 709v77h1057v-77h-1057z" />
<glyph unicode="&#x3e;" horiz-adv-x="1220" d="M145 0v92l840 451v4l-840 450v93l930 -506v-78z" />
<glyph unicode="?" horiz-adv-x="602" d="M106 1356q63 49 182.5 49t184 -72.5t64.5 -189.5q0 -55 -17.5 -112.5t-35 -92.5t-54.5 -96.5t-49 -85.5q-51 -94 -65.5 -176t1.5 -207l5 -29h-86l-5 25q-41 221 72 415q10 18 36 61.5t35 61t26.5 53t23.5 58t12 54.5t6 65q0 188 -170 188q-86 0 -139 -39zM193 65.5 q0 36.5 19 60.5t52 24q72 0 72 -84q0 -82 -72 -82h-2q-31 0 -50 22.5t-19 59z" />
<glyph unicode="@" horiz-adv-x="1167" d="M76 365q0 358 187.5 607t451.5 249q182 0 286.5 -126t104.5 -345q0 -295 -87 -456t-222 -161q-49 0 -79 39t-22 119h-4q-94 -158 -223 -158q-72 0 -116 52.5t-44 158.5q0 115 46 232.5t152.5 209t248.5 91.5q70 0 116 -21l-90 -436q-45 -217 35 -217q82 0 145.5 147.5 t63.5 354.5q0 442 -321 442q-225 0 -386 -223.5t-161 -563.5q0 -244 105.5 -369.5t307.5 -125.5q117 0 244 61l23 -61q-117 -76 -289 -76q-215 0 -344 144.5t-129 431.5zM395 342q0 -139 88 -139q72 0 139.5 86t90.5 190l67 320q-23 8 -59 8q-137 0 -231.5 -150.5 t-94.5 -314.5z" />
<glyph unicode="A" horiz-adv-x="862" d="M61 0l326 1380h84l330 -1380h-90l-111 475h-342l-111 -475h-86zM276 551h304l-88 389q-33 139 -62 315h-8q-20 -139 -60 -317z" />
<glyph unicode="B" horiz-adv-x="765" d="M127 6v1354q90 27 184 26q186 0 277 -94q82 -82 82 -227q0 -111 -58.5 -191.5t-160.5 -117.5v-4q123 -31 192.5 -126.5t69.5 -240.5q0 -166 -97 -274q-100 -117 -311 -117q-117 0 -178 12zM215 78q41 -8 92 -8q147 0 230.5 81.5t83.5 233.5q0 158 -94.5 241t-235.5 85 h-76v-633zM215 782h82q115 0 198 78t83 197q0 254 -271 254q-57 0 -92 -11v-518z" />
<glyph unicode="C" d="M74 676q0 199 42 346t111.5 224t142 112t150.5 35q111 0 162 -33l-29 -78q-66 31 -147 31q-57 0 -113.5 -33t-110 -100.5t-85 -193.5t-31.5 -294q0 -332 99.5 -478t248.5 -146q92 0 154 34l24 -75q-72 -39 -192 -39q-184 0 -305 165t-121 523z" />
<glyph unicode="D" horiz-adv-x="851" d="M127 6v1354q72 27 174 26q182 0 287 -92q190 -160 190 -561q0 -393 -149 -581q-125 -158 -355 -158q-98 0 -147 12zM215 76q29 -4 68 -4q403 0 403 649q0 590 -385 590q-37 0 -86 -8v-1227z" />
<glyph unicode="E" horiz-adv-x="673" d="M127 0v1380h479v-77h-391v-539h365v-78h-365v-608h418v-78h-506z" />
<glyph unicode="F" horiz-adv-x="647" d="M127 0v1380h479v-77h-391v-564h365v-77h-365v-662h-88z" />
<glyph unicode="G" horiz-adv-x="845" d="M74 666q0 162 29.5 289.5t77.5 207.5t112.5 133.5t128 75t131.5 21.5q111 0 180 -37l-28 -78q-66 35 -160 35q-68 0 -130.5 -32t-120.5 -98.5t-93 -191.5t-35 -293q0 -336 105.5 -483t269.5 -147q86 0 123 20v524h-211v76h299v-653q-102 -47 -220 -47q-184 0 -301 133 q-157 180 -157 545z" />
<glyph unicode="H" horiz-adv-x="882" d="M127 0v1380h88v-616h453v616h88v-1380h-88v686h-453v-686h-88z" />
<glyph unicode="I" horiz-adv-x="346" d="M127 0v1380h88v-1380h-88z" />
<glyph unicode="J" horiz-adv-x="501" d="M23 -6l8 76q27 -6 67 -7q106 0 153.5 61.5t47.5 235.5v1020h88v-1024q0 -193 -67.5 -282.5t-215.5 -89.5q-50 0 -81 10z" />
<glyph unicode="K" horiz-adv-x="759" d="M127 0v1380h88v-678h4q33 51 96 160l303 518h101l-357 -581l369 -799h-96l-332 723l-88 -143v-580h-88z" />
<glyph unicode="L" horiz-adv-x="659" d="M127 0v1380h88v-1304h410v-76h-498z" />
<glyph unicode="M" horiz-adv-x="1179" d="M102 0l72 1380h102l193 -712q88 -319 119 -469h6q29 145 111 469l186 712h110l76 -1380h-90l-33 664q-16 329 -15 502q0 52 1 89h-10q-55 -270 -123 -514l-201 -741h-45l-190 705q-94 356 -131 550h-9q1 -33 1 -74q0 -185 -15 -534l-27 -647h-88z" />
<glyph unicode="N" horiz-adv-x="888" d="M127 0v1380h88l279 -712q147 -379 194 -529h4q-14 262 -14 631v610h84v-1380h-88l-295 750q-117 291 -178 501h-4q14 -213 14 -669v-582h-84z" />
<glyph unicode="O" horiz-adv-x="868" d="M74 690q0 358 105.5 532.5t269.5 174.5q147 0 246.5 -172t99.5 -534.5t-103.5 -534.5t-265.5 -172h-2q-150 0 -250 173t-100 533zM166 690q0 -111 12 -212t40 -199.5t84 -157t132 -58.5h2q78 0 133.5 58.5t83 157t38.5 199t11 212.5q0 111 -12 212.5t-39.5 199.5 t-84 156.5t-132.5 58.5t-131 -58.5t-84 -155.5t-41 -198.5t-12 -214.5z" />
<glyph unicode="P" horiz-adv-x="743" d="M127 0v1360q90 27 197 26q170 0 262 -98t92 -276q0 -147 -64 -250q-106 -168 -319 -168q-55 0 -80 4v-598h-88zM215 676q31 -6 74 -6q131 0 214 86t83 254q0 131 -63.5 216t-207.5 85q-59 0 -100 -11v-624z" />
<glyph unicode="Q" horiz-adv-x="868" d="M74 690q0 365 105.5 536t271.5 171q145 0 244.5 -173t99.5 -534q0 -561 -252 -670v-6q96 -41 264 -96l-35 -80q-152 59 -295 129q-33 16 -43 17q-162 0 -261 175t-99 531zM166 690.5q0 -110.5 12 -212t41 -200t85 -157t134 -58.5h2q76 0 130.5 58.5t82 157t38.5 200 t11 212t-12 212t-39.5 199.5t-82 156.5t-130.5 58.5q-78 0 -134 -58.5t-85 -156.5t-41 -199.5t-12 -212z" />
<glyph unicode="R" horiz-adv-x="759" d="M127 0v1360q72 27 186 26q182 0 275 -96q90 -96 90 -258q0 -258 -227 -362v-4q150 -37 196 -332q43 -260 74 -334h-88q-25 53 -76 348q-27 154 -87 219.5t-179 65.5h-76v-633h-88zM215 702h78q129 0 211 85t82 229q0 295 -277 295q-61 0 -94 -8v-601z" />
<glyph unicode="S" horiz-adv-x="696" d="M63 51l31 74q82 -57 180 -57q117 0 186.5 77.5t69.5 204.5q0 100 -48 176t-136 150q-4 4 -48 36.5t-71.5 60.5t-64.5 72t-56.5 98t-19.5 114q0 147 93 241.5t229 94.5q113 0 178 -52l-35 -75q-63 47 -158 47q-102 0 -159.5 -71t-57.5 -161q0 -49 13.5 -92t24.5 -67.5 t49 -61.5t52 -48l72 -56q121 -94 177.5 -189.5t56.5 -210.5q0 -168 -99.5 -268t-245.5 -100q-59 0 -122.5 19t-90.5 44z" />
<glyph unicode="T" horiz-adv-x="675" d="M37 1305v75h604v-75h-258v-1305h-88v1305h-258z" />
<glyph unicode="U" horiz-adv-x="882" d="M127 420v960h88v-942q0 -375 223 -375q229 0 230 375v942h88v-931q0 -250 -90.5 -357.5t-231.5 -107.5q-135 0 -221 100t-86 336z" />
<glyph unicode="V" horiz-adv-x="823" d="M51 1380h90l158 -680q84 -367 113 -561h8q23 193 108 566l156 675h88l-323 -1380h-78z" />
<glyph unicode="W" horiz-adv-x="1306" d="M51 1380h90l148 -737q57 -289 82 -506h8q14 147 86 510l145 733h82l150 -714q72 -344 90 -529h6q29 229 86 518l143 725h88l-284 -1380h-78l-164 807q-57 295 -76 453h-4q-23 -209 -76 -461l-163 -799h-76z" />
<glyph unicode="X" horiz-adv-x="782" d="M51 0l299 702l-291 678h93l151 -358q47 -102 92 -219h4q33 94 84 225l140 352h94l-277 -661l291 -719h-94l-150 379q-27 66 -92 239h-6q-8 -25 -43 -112.5t-51 -128.5l-148 -377h-96z" />
<glyph unicode="Y" horiz-adv-x="796" d="M51 1380h94l140 -356q92 -238 121 -324h4q23 72 122 330l140 350h94l-322 -757v-623h-88v618z" />
<glyph unicode="Z" horiz-adv-x="696" d="M51 0v55l496 1245v5h-457v75h557v-51l-495 -1247v-6h493v-76h-594z" />
<glyph unicode="[" horiz-adv-x="512" d="M182 -229v1634h258v-70h-178v-1495h178v-69h-258z" />
<glyph unicode="\" horiz-adv-x="575" d="M25 1397h84l413 -1479h-84z" />
<glyph unicode="]" horiz-adv-x="512" d="M74 -160h176v1495h-176v70h258v-1634h-258v69z" />
<glyph unicode="^" horiz-adv-x="1220" d="M156 401l415 930h78l416 -930h-88l-365 828h-4l-364 -828h-88z" />
<glyph unicode="_" horiz-adv-x="1024" d="M0 -154h1024v-102h-1024v102z" />
<glyph unicode="`" horiz-adv-x="614" d="M94 1386h117l168 -270h-66z" />
<glyph unicode="a" horiz-adv-x="671" d="M61 254q0 170 112 259t290 91v37q0 141 -35 211t-135 70q-76 0 -139 -48l-25 68q66 57 182 57q240 0 240 -313v-465q0 -160 8 -221h-82l-8 109h-6q-61 -125 -184 -125q-92 0 -155 73.5t-63 196.5zM154 260q0 -102 39.5 -150.5t97.5 -48.5q63 0 108 49.5t60 137.5 q4 23 4 63v217q-309 0 -309 -268z" />
<glyph unicode="b" horiz-adv-x="755" d="M111 0q8 147 8 201v1216h88v-559h4q66 141 209 141q109 0 186.5 -128t77.5 -379.5t-86 -379.5t-199 -128q-139 0 -196 153h-8l-9 -137h-75zM207 344q0 -41 4 -59q53 -223 182 -224q104 0 151.5 122t47.5 309q0 182 -49 306t-154 124q-66 0 -118 -72t-62 -158 q-2 -25 -2 -71v-277z" />
<glyph unicode="c" horiz-adv-x="591" d="M72 489q0 213 93 361.5t257 148.5q82 0 135 -34l-29 -78q-55 33 -120 33q-84 0 -141.5 -68t-80 -163t-22.5 -206q0 -197 67.5 -307t184.5 -110q63 0 123 30l20 -67q-66 -41 -160 -41q-147 0 -237 130.5t-90 370.5z" />
<glyph unicode="d" horiz-adv-x="755" d="M72 487q0 248 84 380t200 132q129 0 189 -127h4v545h88v-1216q0 -53 8 -201h-76l-8 131h-8q-61 -147 -207 -147q-115 0 -194.5 126.5t-79.5 376.5zM164 492q0 -182 48 -306.5t144 -124.5q135 0 189 220q4 20 4 67v264q0 47 -2 70q-6 98 -58.5 169t-119.5 71 q-106 0 -155.5 -123t-49.5 -307z" />
<glyph unicode="e" horiz-adv-x="671" d="M72 487q0 233 78.5 372.5t214.5 139.5q70 0 121 -38.5t76.5 -103t37.5 -132.5t12 -139v-58h-450q0 -463 248 -462q90 0 147 38l21 -67q-70 -49 -185 -49q-158 0 -239.5 135t-81.5 364zM164 600h354v12q0 155 -50 231q-52 79 -118 79q-80 0 -129 -95.5t-57 -226.5z" />
<glyph unicode="f" horiz-adv-x="395" d="M27 907v76h118v74q0 203 78 297q68 80 172 80q59 0 103 -25l-25 -72q-41 18 -88 19q-88 0 -120 -81t-32 -218v-74h187v-76h-187v-907h-88v907h-118z" />
<glyph unicode="g" horiz-adv-x="755" d="M72 492q0 262 92 384.5t205 122.5q43 0 74.5 -12t54 -38.5t31 -39t24.5 -43.5h4l4 117h84q-8 -213 -8 -303v-543q0 -205 -19.5 -297t-64.5 -147q-80 -102 -225 -103q-123 0 -199 50l29 73q80 -45 180 -45q211 0 211 340v125h-4q-51 -133 -195 -133q-117 0 -197.5 130.5 t-80.5 361.5zM164 500q0 -209 58.5 -315.5t144.5 -106.5q129 0 174 184q8 37 8 96v299q0 49 -6 72q-47 193 -178 193q-92 0 -146.5 -114.5t-54.5 -307.5z" />
<glyph unicode="h" horiz-adv-x="761" d="M121 0v1417h88v-540h4q33 55 82 88q53 35 129 34q84 0 150.5 -71.5t66.5 -239.5v-688h-88v657q0 266 -156 267q-68 0 -116 -51.5t-68 -145.5q-4 -25 -4 -74v-653h-88z" />
<glyph unicode="i" horiz-adv-x="329" d="M98 1235q0 33 18.5 54.5t47.5 21.5q68 0 67.5 -76t-67.5 -76h-2q-29 0 -46.5 20.5t-17.5 55.5zM121 0v983h88v-983h-88z" />
<glyph unicode="j" horiz-adv-x="339" d="M-45 -338q100 33 135 90q49 86 49 346v885h88v-926q0 -150 -17 -230.5t-63 -137.5q-35 -43 -85 -69t-87 -30zM117 1235q0 35 18.5 55.5t48.5 20.5q66 0 66 -76t-66 -76h-2q-29 0 -47 20.5t-18 55.5z" />
<glyph unicode="k" horiz-adv-x="651" d="M119 0v1417h88v-907h4q10 16 29.5 50t25.5 44l238 379h96l-272 -414l303 -569h-101l-260 502l-63 -96v-406h-88z" />
<glyph unicode="l" horiz-adv-x="350" d="M121 0v1417h88v-1417h-88z" />
<glyph unicode="m" horiz-adv-x="1193" d="M113 983h80l4 -125h4q61 141 213 141q150 0 200 -159h4q39 82 95 121q57 39 135 38q94 0 159.5 -75.5t65.5 -253.5v-670h-88v639q0 285 -166 285q-59 0 -106 -50.5t-66 -134.5q-6 -33 -6 -100v-639h-88v664q0 260 -164 260q-63 0 -113.5 -54.5t-62.5 -150.5 q-4 -31 -4 -90v-629h-88v756q0 72 -4 144.5t-4 82.5z" />
<glyph unicode="n" horiz-adv-x="761" d="M113 983h80l4 -121h4q63 137 217 137q92 0 157.5 -73.5t65.5 -245.5v-680h-88v645q0 279 -162 279q-63 0 -113.5 -54.5t-64.5 -150.5q-4 -27 -4 -86v-633h-88v756q0 72 -4 144.5t-4 82.5z" />
<glyph unicode="o" horiz-adv-x="724" d="M72 491.5q0 253.5 86 380.5t213 127q117 0 199.5 -127t82.5 -380.5t-85 -380.5t-210 -127h-2q-117 0 -200.5 127t-83.5 380.5zM164 491.5q0 -69.5 8 -136t27.5 -137.5t61.5 -114t101 -43h3q59 0 100 43t60.5 114t27.5 137.5t8 136t-8 136t-27.5 137.5t-62.5 114 t-102.5 43t-100.5 -43t-60.5 -114t-27.5 -137.5t-8 -136z" />
<glyph unicode="p" horiz-adv-x="755" d="M111 983h84l4 -131h4q76 147 209 147q117 0 194.5 -125.5t77.5 -377.5q0 -260 -86 -386t-209 -126q-125 0 -178 125h-4v-502h-88v1073q0 90 -8 303zM207 362q0 -53 4 -79q25 -127 76 -174.5t104 -47.5q201 0 201 431q0 182 -49 306t-156 124q-66 0 -119 -74t-59 -164 q-2 -27 -2 -78v-244z" />
<glyph unicode="q" horiz-adv-x="755" d="M72 487q0 250 87 381t210 131t184 -137h4l4 121h84q-8 -213 -8 -303v-1073h-88v506h-8q-23 -57 -74 -93t-117 -36q-117 0 -197.5 125.5t-80.5 377.5zM164 487q0 -186 49 -306t154 -120q125 0 176 211q6 29 6 97v243q0 47 -2 70q-8 98 -59.5 169t-116.5 71 q-109 0 -158 -123.5t-49 -311.5z" />
<glyph unicode="r" horiz-adv-x="448" d="M111 983h84l4 -160h4q20 70 79.5 123t133.5 53h18v-96h-16q-90 0 -146.5 -73.5t-62.5 -172.5q-2 -29 -2 -84v-573h-88v756q0 45 -4 135t-4 92z" />
<glyph unicode="s" horiz-adv-x="548" d="M49 45l33 72q74 -51 147 -51q78 0 124 48t46 130q0 70 -28.5 123t-104.5 106q-100 72 -149 132.5t-49 146.5q0 109 71.5 178t167.5 69q88 0 160 -53l-39 -72q-61 47 -127 48q-68 0 -106.5 -45.5t-38.5 -106.5t26.5 -102t100.5 -97q47 -35 73.5 -56t62.5 -60t53 -85 t17 -102q0 -137 -76.5 -208.5t-187.5 -71.5q-108 0 -176 57z" />
<glyph unicode="t" horiz-adv-x="450" d="M27 907v76h123v164l88 51v-215h186v-76h-186v-669q0 -174 104 -175q39 0 59 7l11 -68q-31 -14 -88 -14q-88 0 -131 57t-43 225v637h-123z" />
<glyph unicode="u" horiz-adv-x="745" d="M119 346v637h88v-618q0 -145 31.5 -225.5t121.5 -80.5q82 0 126 57.5t51 114.5q4 31 4 91v661h88v-735q0 -2 8 -248h-80l-8 102h-4q-23 -41 -76 -79.5t-125 -38.5q-225 0 -225 362z" />
<glyph unicode="v" horiz-adv-x="651" d="M37 983h88l156 -623q25 -92 45 -217h6q10 76 43 217l149 623h90l-254 -983h-73z" />
<glyph unicode="w" horiz-adv-x="1095" d="M37 983h88l121 -516q51 -219 65 -324h8q23 147 68 320l129 520h70l123 -504q47 -188 71 -336h8q12 94 66 328l115 512h90l-244 -983h-67l-140 561q-27 98 -57 289h-4q-20 -139 -60 -297l-137 -553h-74z" />
<glyph unicode="x" horiz-adv-x="624" d="M29 0l243 498l-233 485h94l111 -233q27 -55 75 -177h5q12 31 25 63t28.5 64.5t23.5 49.5l107 233h96l-242 -485l236 -498h-96l-111 246q-23 49 -76 180h-4q-14 -41 -78 -180l-110 -246h-94z" />
<glyph unicode="y" horiz-adv-x="651" d="M27 -358q76 49 145 149q63 94 92 197q10 37 10 53q0 25 -4 37l-233 905h90l152 -598q12 -49 27.5 -124t21.5 -103h4q6 33 25.5 112.5t27.5 114.5l139 598h90l-135 -551q-66 -270 -122 -439t-138 -280q-74 -100 -147 -145z" />
<glyph unicode="z" horiz-adv-x="593" d="M31 0v53l354 715q12 23 34.5 68t35.5 67v4h-381v76h485v-55l-354 -711q-8 -14 -33 -62.5t-37 -74.5v-4h416v-76h-520z" />
<glyph unicode="{" horiz-adv-x="512" d="M82 555v66q143 0 143 163q0 63 -12 187q-12 127 -12 192q0 125 63.5 183.5t159.5 58.5h16v-70h-28q-68 -8 -97.5 -47t-29.5 -117q0 -63 12 -174q12 -115 12 -170q2 -121 -30.5 -170t-100.5 -67v-4q68 -18 100.5 -67.5t30.5 -170.5q0 -57 -12 -168q-12 -115 -12 -176 q0 -78 29.5 -117t97.5 -47h28v-69h-16q-96 0 -159.5 58t-63.5 183q0 66 12 193q12 123 12 186q0 164 -143 164z" />
<glyph unicode="|" horiz-adv-x="389" d="M152 -512v2048h86v-2048h-86z" />
<glyph unicode="}" horiz-adv-x="512" d="M72 -160h28q68 8 97.5 47t29.5 117q0 61 -12 176q-12 111 -12 168q-2 121 30.5 170t100.5 68v4q-68 18 -100.5 67.5t-30.5 169.5q0 55 12 170q12 111 12 174q0 78 -29.5 117t-97.5 47h-28v70h16q96 0 159.5 -58.5t63.5 -183.5q0 -66 -12 -192q-12 -123 -12 -187 q0 -164 143 -163v-66q-143 0 -143 -164q0 -63 12 -186q12 -127 12 -193q0 -125 -63.5 -183t-159.5 -58h-16v69z" />
<glyph unicode="~" horiz-adv-x="1220" d="M170 477q-8 100 43 166t152 66q88 0 258 -78q176 -80 258 -80q53 0 78.5 46t21.5 108h72q8 -115 -43.5 -173.5t-143.5 -58.5q-102 0 -260 74q-180 84 -258 84q-51 0 -79.5 -41t-26.5 -113h-72z" />
<glyph unicode="&#xa1;" horiz-adv-x="376" d="M121 940q0 35 18.5 57.5t48.5 22.5h2q66 0 66 -80q0 -78 -68 -78q-31 0 -49 21.5t-18 56.5zM139 -385l15 1036h71l15 -1036h-101z" />
<glyph unicode="&#xa2;" d="M135 676q0 182 67.5 313t186.5 156v182h76v-176q76 0 133 -37l-27 -76q-59 39 -131 39q-61 0 -106 -41t-67.5 -107.5t-32 -133t-9.5 -136.5q0 -188 57.5 -294.5t163.5 -106.5q70 0 140 37l20 -66q-55 -41 -141 -47v-192h-76v194q-82 14 -147 84q-107 121 -107 408z" />
<glyph unicode="&#xa3;" d="M55 0v59q61 25 132 147t71 247q0 96 -14 200h-172v74h161q-31 160 -30 260q0 174 84 267.5t194 93.5q100 0 156 -45l-33 -70q-51 37 -131 37q-90 0 -135 -74t-45 -176q0 -123 31 -293h215v-74h-203q23 -186 -4 -305q-35 -158 -146 -264v-4h498v-80h-629z" />
<glyph unicode="&#xa4;" d="M-4 287l143 145q-53 104 -53 243.5t53 244.5l-143 145l63 63l123 -145q31 41 84 65.5t103 24.5h2q47 0 100 -24.5t86 -65.5l123 145l61 -63l-141 -145q51 -100 51 -244t-51 -244l141 -145l-61 -64l-123 146q-33 -41 -86 -65.5t-102.5 -24.5t-102.5 24.5t-84 65.5 l-123 -146zM170 674q0 -143 56.5 -230.5t142.5 -87.5q88 -4 143 84t55 233.5t-54 233.5t-140 88h-2q-90 0 -145.5 -83.5t-55.5 -237.5z" />
<glyph unicode="&#xa5;" d="M41 1331h92l156 -405q47 -119 76 -199h4q27 86 73 203l164 401h90l-270 -614h229v-68h-256v-172h256v-67h-256v-410h-86v410h-250v67h250v172h-250v68h224z" />
<glyph unicode="&#xa6;" horiz-adv-x="389" d="M152 356h86v-716h-86v716zM152 664v716h86v-716h-86z" />
<glyph unicode="&#xa7;" horiz-adv-x="782" d="M61 727q0 131 142 238q-72 59 -74 163q0 125 92 197t213 72q125 0 201 -54l-35 -69q-70 51 -170 51q-86 0 -150.5 -44t-64.5 -138q0 -45 15.5 -79t58.5 -64.5t60.5 -40t80.5 -37.5q10 -6 16 -9q63 -29 103.5 -52t84.5 -61t65.5 -88t21.5 -114q0 -145 -127 -242 q72 -72 72 -174q0 -143 -91.5 -213.5t-224.5 -70.5q-158 0 -244 71l35 72q96 -72 217 -72q92 0 157 49.5t65 145.5q0 82 -50.5 136t-179.5 118q-76 37 -116.5 60.5t-87 61.5t-66 83t-19.5 104zM143 727q0 -113 172 -197q160 -78 226 -129q98 57 98 193q0 129 -152 207 q-14 6 -67 30.5t-93 46t-73 46.5q-111 -74 -111 -195v-2z" />
<glyph unicode="&#xa8;" horiz-adv-x="614" d="M92 1233q0 29 20.5 48t51.5 19q29 0 47 -19t18 -48t-19.5 -48.5t-45.5 -19.5h-2q-29 0 -49.5 19.5t-20.5 48.5zM383 1233q0 29 20.5 48t51.5 19q29 0 47 -19t18 -48t-19.5 -48.5t-45.5 -19.5h-2q-29 0 -49.5 19.5t-20.5 48.5z" />
<glyph unicode="&#xa9;" horiz-adv-x="1386" d="M70 696q0 262 182 446.5t444 184.5h2q260 0 439.5 -184.5t179.5 -446.5q0 -266 -179.5 -450.5t-441.5 -184.5q-264 0 -445 185.5t-181 449.5zM154 688q0 -238 155.5 -399.5t386.5 -161.5q227 -2 382 162t155 407q0 240 -154.5 403t-382.5 163h-2q-231 0 -385.5 -164 t-154.5 -410zM358 684q0 170 114 275.5t273 105.5q150 0 226 -49l-21 -64q-104 45 -202 45q-152 0 -229 -86t-77 -221q0 -133 80 -221t230 -88q123 0 211 51l20 -59q-94 -59 -252 -60q-170 0 -271.5 106.5t-101.5 264.5z" />
<glyph unicode="&#xaa;" horiz-adv-x="522" d="M51 713q0 115 93.5 176t238.5 59v29q0 74 -34 117t-99 43q-70 0 -133 -47l-27 57q72 57 172 57q197 0 197 -225v-291q0 -106 8 -149h-72l-8 73h-4q-49 -84 -158 -84q-72 0 -123 50.5t-51 134.5zM133 723q0 -61 35 -94t78 -33q76 0 119 74q18 33 18 51v162 q-250 0 -250 -160z" />
<glyph unicode="&#xab;" horiz-adv-x="688" d="M61 516l209 344h86l-206 -344l206 -344h-90zM332 516l209 344h86l-207 -344l207 -344h-90z" />
<glyph unicode="&#xac;" horiz-adv-x="1220" d="M82 709v77h1057v-524h-82v447h-975z" />
<glyph unicode="&#xad;" horiz-adv-x="595" d="M61 477v78h474v-78h-474z" />
<glyph unicode="&#xae;" horiz-adv-x="757" d="M61 1083q0 131 92.5 222.5t225.5 91.5h2q133 0 224 -91.5t91 -222.5q0 -133 -92 -225t-225 -92t-225.5 92t-92.5 225zM127 1083q0 -111 72.5 -185.5t181.5 -74.5q104 -2 176 74t72 184.5t-72 184t-178 75.5h-2q-104 0 -177 -76t-73 -182zM264 909v330q51 10 109 10 q68 0 104 -26q33 -23 33 -70q0 -55 -66 -78v-4q39 -12 56 -80q14 -66 24 -82h-59q-14 16 -27 86q-12 53 -78 54h-38v-140h-58zM322 1096h40q86 0 87 51q0 55 -80 55q-27 0 -47 -4v-102z" />
<glyph unicode="&#xaf;" horiz-adv-x="614" d="M117 1188v74h383v-74h-383z" />
<glyph unicode="&#x2c9;" horiz-adv-x="614" d="M117 1188v74h383v-74h-383z" />
<glyph unicode="&#xb0;" horiz-adv-x="565" d="M61 1133q-2 113 72 192.5t180 79.5h2q102 0 176 -80t74 -192q0 -115 -73.5 -194t-178.5 -79q-106 0 -179 79t-73 194zM141 1133q0 -86 49.5 -144.5t123 -58.5t122.5 58.5t49 144.5q0 84 -49 143t-123 59h-2q-72 0 -121 -59t-49 -143z" />
<glyph unicode="&#xb1;" horiz-adv-x="1220" d="M82 0v78h1057v-78h-1057zM82 657v78h487v426h82v-426h488v-78h-488v-442h-82v442h-487z" />
<glyph unicode="&#xb2;" horiz-adv-x="464" d="M-2 854v29l76 94q76 94 115.5 147.5t88 149.5t48.5 168q0 74 -37 110.5t-99 36.5q-74 0 -137 -59l-30 59q74 74 188 74q94 0 146.5 -59.5t52.5 -153.5q0 -162 -209 -424l-78 -96v-4h303v-72h-428z" />
<glyph unicode="&#xb3;" horiz-adv-x="450" d="M-6 891l26 65q68 -43 148 -43q72 0 117 42t45 124q0 178 -199 178h-10v62h12q53 0 112.5 42t59.5 114q0 57 -31.5 87.5t-85.5 30.5q-74 0 -133 -47l-24 60q70 57 170 57q86 0 136 -50t50 -132q0 -57 -34 -106.5t-93 -74.5v-4q59 -14 106.5 -68t47.5 -141 q0 -104 -69 -173.5t-187 -69.5q-90 0 -164 47z" />
<glyph unicode="&#xb4;" horiz-adv-x="614" d="M236 1116l167 270h117l-219 -270h-65z" />
<glyph unicode="&#xb5;" horiz-adv-x="745" d="M119 -154v1137h88v-666q0 -254 153 -254q82 0 126 56.5t51 111.5q4 31 4 91v661h88v-817q0 -55 13 -85t46 -28l-12 -67q-10 -2 -33 -2q-82 0 -94 118h-4q-20 -37 -72.5 -74.5t-112.5 -37.5q-113 0 -155 90v-184q0 -207 14 -289h-78q-22 65 -22 239z" />
<glyph unicode="&#xb6;" horiz-adv-x="782" d="M72 938q-10 188 101.5 315t332.5 127q82 0 156 -10v-1472h-74v1409h-123v-1409h-74v675h-12q-111 0 -203 97.5t-104 267.5z" />
<glyph unicode="&#xb7;" horiz-adv-x="348" d="M102 516q0 35 20.5 57.5t51.5 22.5q33 0 52.5 -21.5t19.5 -58.5q0 -35 -19.5 -56.5t-52.5 -21.5h-2q-31 0 -50.5 21.5t-19.5 56.5z" />
<glyph unicode="&#x2219;" horiz-adv-x="348" d="M102 516q0 35 20.5 57.5t51.5 22.5q33 0 52.5 -21.5t19.5 -58.5q0 -35 -19.5 -56.5t-52.5 -21.5h-2q-31 0 -50.5 21.5t-19.5 56.5z" />
<glyph unicode="&#xb8;" horiz-adv-x="614" d="M164 -367l29 66q45 -31 98 -31q80 0 80 68q0 84 -142 100l82 174h72l-64 -121q53 -6 92.5 -46t39.5 -97q0 -74 -49.5 -113t-112.5 -39q-66 0 -125 39z" />
<glyph unicode="&#xb9;" horiz-adv-x="399" d="M27 1552l186 101h66v-799h-80v715h-4l-154 -86z" />
<glyph unicode="&#xba;" horiz-adv-x="606" d="M74 866q0 162 68.5 250t168.5 88h2q219 0 219 -338q0 -166 -65.5 -252t-163.5 -86q-96 0 -162.5 86t-66.5 252zM160 866q0 -100 35.5 -187t107.5 -87q80 0 113 83t33 191q0 47 -6.5 91t-20.5 88.5t-45 70t-74 25.5h-2q-70 0 -105.5 -85.5t-35.5 -189.5z" />
<glyph unicode="&#xbb;" horiz-adv-x="688" d="M61 172l207 344l-207 344h86l209 -344l-204 -344h-91zM332 172l207 344l-207 344h86l209 -344l-205 -344h-90z" />
<glyph unicode="&#xbc;" horiz-adv-x="1187" d="M80 1237l186 100h66v-798h-80v714h-4l-154 -86zM207 -16l686 1364h76l-686 -1364h-76zM649 240v41l299 528h82v-504h100v-65h-100v-240h-80v240h-301zM752 305h198v244q0 18 8 158h-4q-43 -88 -82 -162l-120 -234v-6z" />
<glyph unicode="&#xbd;" horiz-adv-x="1187" d="M43 1237l186 100h66v-798h-80v714h-4l-154 -86zM162 -16l684 1364h76l-684 -1364h-76zM690 0v29l76 94q76 94 116 147.5t88 149.5t48 168q0 74 -37 110.5t-98 36.5q-74 0 -138 -59l-30 59q74 74 188 74q94 0 146.5 -59.5t52.5 -153.5q0 -162 -209 -424l-78 -96v-4h303 v-72h-428z" />
<glyph unicode="&#xbe;" horiz-adv-x="1187" d="M57 575l27 66q68 -43 147 -43q72 0 117 42t45 124q0 178 -198 178h-11v62h13q55 2 113.5 42.5t58.5 112.5q0 57 -32 88t-85 31q-74 0 -133 -47l-25 59q70 57 170 58q86 0 136.5 -50.5t50.5 -132.5q0 -57 -34 -106t-93 -74v-4q59 -14 106 -68.5t47 -140.5 q0 -104 -68.5 -174t-187.5 -70q-90 0 -164 47zM242 -16l686 1364h76l-687 -1364h-75zM651 240v41l299 528h82v-504h101v-65h-101v-240h-80v240h-301zM750 305h202v244q0 18 9 158h-5q-43 -88 -82 -162l-124 -234v-6z" />
<glyph unicode="&#xbf;" horiz-adv-x="602" d="M66 -147q0 55 17 112.5t34.5 92t54.5 96t49 86.5q51 94 65.5 176t-1.5 207l-4 28h86l4 -24q41 -221 -72 -416q-10 -18 -35.5 -61.5t-35 -60.5t-27 -53t-23.5 -58.5t-12 -54.5t-6 -64q0 -188 170 -189q74 0 139 39l27 -69q-63 -49 -182 -49.5t-183.5 72.5t-64.5 190z M266 938q0 82 72 82h2q31 0 50.5 -22.5t19.5 -59.5t-19.5 -60.5t-52.5 -23.5q-72 0 -72 84z" />
<glyph unicode="&#xc0;" horiz-adv-x="862" d="M61 0l326 1380h84l330 -1380h-90l-111 475h-342l-111 -475h-86zM182 1669h133l209 -215h-84zM276 551h304l-88 389q-33 139 -62 315h-8q-20 -139 -60 -317z" />
<glyph unicode="&#xc1;" horiz-adv-x="862" d="M61 0l326 1380h84l330 -1380h-90l-111 475h-342l-111 -475h-86zM276 551h304l-88 389q-33 139 -62 315h-8q-20 -139 -60 -317zM340 1454l209 215h133l-258 -215h-84z" />
<glyph unicode="&#xc2;" horiz-adv-x="862" d="M61 0l326 1380h84l330 -1380h-90l-111 475h-342l-111 -475h-86zM205 1454l182 184h90l182 -184h-102l-123 117h-4l-123 -117h-102zM276 551h304l-88 389q-33 139 -62 315h-8q-20 -139 -60 -317z" />
<glyph unicode="&#xc3;" horiz-adv-x="862" d="M61 0l326 1380h84l330 -1380h-90l-111 475h-342l-111 -475h-86zM229 1470q0 72 30 118t83 46q33 0 90 -35q61 -37 84 -36q51 0 57 73h60q0 -154 -119 -153q-41 0 -94 37q-57 35 -76 34q-27 0 -38 -19t-15 -65h-62zM276 551h304l-88 389q-33 139 -62 315h-8 q-20 -139 -60 -317z" />
<glyph unicode="&#xc4;" horiz-adv-x="862" d="M61 0l326 1380h84l330 -1380h-90l-111 475h-342l-111 -475h-86zM213 1550q0 33 18.5 53.5t49.5 20.5q68 0 67.5 -73.5t-67.5 -73.5h-2q-66 -1 -66 73zM276 551h304l-88 389q-33 139 -62 315h-8q-20 -139 -60 -317zM516 1550q0 33 18.5 53.5t49.5 20.5q68 0 67.5 -73.5 t-67.5 -73.5h-2q-66 -1 -66 73z" />
<glyph unicode="&#xc5;" horiz-adv-x="862" d="M61 0l326 1380h84l330 -1380h-90l-111 475h-342l-111 -475h-86zM262 1591q0 74 51.5 125t126.5 51h2q74 0 124 -51t50 -125q0 -72 -52 -121t-124 -49q-76 0 -127 49t-51 121zM276 551h304l-88 389q-33 139 -62 315h-8q-20 -139 -60 -317zM336 1591q0 -41 29.5 -74.5 t72.5 -33.5q45 0 75 32.5t30 79.5t-30 80t-75 33h-2q-45 0 -72.5 -35t-27.5 -82z" />
<glyph unicode="&#xc6;" horiz-adv-x="1089" d="M35 0l418 1380h540l-2 -77h-389l29 -539h362v-78h-356l35 -608h387l-2 -78h-467l-31 502h-287l-149 -502h-88zM295 578h260l-20 469q-8 203 -13 270h-12q-47 -150 -80 -275z" />
<glyph unicode="&#xc7;" horiz-adv-x="804" d="M74 676q0 199 42 346t111.5 224t142 112t150.5 35q111 0 162 -33l-29 -78q-66 31 -147 31q-57 0 -113.5 -33t-110 -100.5t-85 -193.5t-31.5 -294q0 -332 99.5 -478t248.5 -146q92 0 154 34l24 -75q-63 -35 -157 -37l-52 -99q53 -6 92 -46t39 -97q0 -74 -49 -112.5 t-112 -38.5q-66 0 -125 38l28 66q45 -31 99 -31q80 0 80 70q0 80 -142 98l72 152q-170 14 -280.5 179t-110.5 507z" />
<glyph unicode="&#xc8;" horiz-adv-x="673" d="M109 1669h133l209 -215h-84zM127 0v1380h479v-77h-391v-539h365v-78h-365v-608h418v-78h-506z" />
<glyph unicode="&#xc9;" horiz-adv-x="673" d="M127 0v1380h479v-77h-391v-539h365v-78h-365v-608h418v-78h-506zM315 1454l209 215h133l-258 -215h-84z" />
<glyph unicode="&#xca;" horiz-adv-x="673" d="M127 0v1380h479v-77h-391v-539h365v-78h-365v-608h418v-78h-506zM135 1454l182 184h91l182 -184h-103l-122 117h-5l-122 -117h-103z" />
<glyph unicode="&#xcb;" horiz-adv-x="673" d="M127 0v1380h479v-77h-391v-539h365v-78h-365v-608h418v-78h-506zM147 1571q0 33 18.5 53.5t49.5 20.5q68 0 68 -74t-68 -74h-2q-66 0 -66 74zM451 1571q0 33 18 53.5t49 20.5q68 0 68 -74t-68 -74h-2q-65 0 -65 74z" />
<glyph unicode="&#xcc;" horiz-adv-x="346" d="M-96 1669h133l209 -215h-84zM127 0v1380h88v-1380h-88z" />
<glyph unicode="&#xcd;" horiz-adv-x="346" d="M78 1454l209 215h133l-258 -215h-84zM127 0v1380h88v-1380h-88z" />
<glyph unicode="&#xce;" horiz-adv-x="346" d="M-53 1454l182 184h90l182 -184h-102l-123 117h-4l-123 -117h-102zM127 0v1380h88v-1380h-88z" />
<glyph unicode="&#xcf;" horiz-adv-x="346" d="M-45 1571q0 33 18.5 53.5t49.5 20.5q68 0 67.5 -74t-67.5 -74h-3q-65 0 -65 74zM127 0v1380h88v-1380h-88zM258 1571q0 33 18.5 53.5t49.5 20.5q68 0 67.5 -74t-67.5 -74h-2q-66 0 -66 74z" />
<glyph unicode="&#xd0;" horiz-adv-x="876" d="M0 686v76h152v598q72 27 174 26q182 0 286 -92q190 -160 191 -567q0 -393 -150 -582q-125 -158 -354 -157q-98 0 -147 12v686h-152zM240 70q29 -4 67 -4q403 0 404 655q0 590 -385 590q-37 0 -86 -8v-541h243v-76h-243v-616z" />
<glyph unicode="&#xd1;" horiz-adv-x="888" d="M127 0v1380h88l279 -712q147 -379 194 -529h4q-14 262 -14 631v610h84v-1380h-88l-295 750q-117 291 -178 501h-4q14 -213 14 -669v-582h-84zM248 1470q0 72 29.5 118t82.5 46q33 0 91 -35q61 -37 84 -36q51 0 57 73h59q0 -154 -119 -153q-41 0 -94 37q-57 35 -76 34 q-27 0 -38 -19t-15 -65h-61z" />
<glyph unicode="&#xd2;" horiz-adv-x="868" d="M74 690q0 358 105.5 532.5t269.5 174.5q147 0 246.5 -172t99.5 -534.5t-103.5 -534.5t-265.5 -172h-2q-150 0 -250 173t-100 533zM166 690q0 -111 12 -212t40 -199.5t84 -157t132 -58.5h2q78 0 133.5 58.5t83 157t38.5 199t11 212.5q0 111 -12 212.5t-39.5 199.5 t-84 156.5t-132.5 58.5t-131 -58.5t-84 -155.5t-41 -198.5t-12 -214.5zM172 1669h133l209 -215h-84z" />
<glyph unicode="&#xd3;" horiz-adv-x="868" d="M74 690q0 358 105.5 532.5t269.5 174.5q147 0 246.5 -172t99.5 -534.5t-103.5 -534.5t-265.5 -172h-2q-150 0 -250 173t-100 533zM166 690q0 -111 12 -212t40 -199.5t84 -157t132 -58.5h2q78 0 133.5 58.5t83 157t38.5 199t11 212.5q0 111 -12 212.5t-39.5 199.5 t-84 156.5t-132.5 58.5t-131 -58.5t-84 -155.5t-41 -198.5t-12 -214.5zM346 1454l209 215h133l-258 -215h-84z" />
<glyph unicode="&#xd4;" horiz-adv-x="868" d="M74 690q0 358 105.5 532.5t269.5 174.5q147 0 246.5 -172t99.5 -534.5t-103.5 -534.5t-265.5 -172h-2q-150 0 -250 173t-100 533zM166 690q0 -111 12 -212t40 -199.5t84 -157t132 -58.5h2q78 0 133.5 58.5t83 157t38.5 199t11 212.5q0 111 -12 212.5t-39.5 199.5 t-84 156.5t-132.5 58.5t-131 -58.5t-84 -155.5t-41 -198.5t-12 -214.5zM211 1454l182 184h90l183 -184h-103l-123 117h-4l-123 -117h-102z" />
<glyph unicode="&#xd5;" horiz-adv-x="868" d="M74 690q0 358 105.5 532.5t269.5 174.5q147 0 246.5 -172t99.5 -534.5t-103.5 -534.5t-265.5 -172h-2q-150 0 -250 173t-100 533zM166 690q0 -111 12 -212t40 -199.5t84 -157t132 -58.5h2q78 0 133.5 58.5t83 157t38.5 199t11 212.5q0 111 -12 212.5t-39.5 199.5 t-84 156.5t-132.5 58.5t-131 -58.5t-84 -155.5t-41 -198.5t-12 -214.5zM231 1470q0 72 30 118t83 46q33 0 90 -35q61 -37 84 -36q51 0 57 73h60q0 -154 -119 -153q-41 0 -94 37q-57 35 -76 34q-27 0 -38 -19t-15 -65h-62z" />
<glyph unicode="&#xd6;" horiz-adv-x="868" d="M74 690q0 358 105.5 532.5t269.5 174.5q147 0 246.5 -172t99.5 -534.5t-103.5 -534.5t-265.5 -172h-2q-150 0 -250 173t-100 533zM166 690q0 -111 12 -212t40 -199.5t84 -157t132 -58.5h2q78 0 133.5 58.5t83 157t38.5 199t11 212.5q0 111 -12 212.5t-39.5 199.5 t-84 156.5t-132.5 58.5t-131 -58.5t-84 -155.5t-41 -198.5t-12 -214.5zM215 1571q0 33 18.5 53.5t49.5 20.5q68 0 67.5 -74t-67.5 -74h-2q-66 0 -66 74zM518 1571q0 33 18.5 53.5t49.5 20.5q68 0 67.5 -74t-67.5 -74h-2q-66 0 -66 74z" />
<glyph unicode="&#xd7;" horiz-adv-x="1220" d="M82 59l473 480l-473 481l51 57l475 -485l477 485l54 -57l-475 -483l471 -478l-52 -59l-473 483l-477 -483z" />
<glyph unicode="&#xd8;" horiz-adv-x="868" d="M74 690q0 360 103.5 533.5t256.5 173.5q123 0 213 -101l62 142l63 -29l-78 -180q100 -201 101 -535q0 -360 -103.5 -535t-257.5 -175q-131 0 -215 110l-69 -151l-58 30l84 193q-102 182 -102 524zM166 690q0 -258 53 -418h4l383 934q-78 111 -172 111q-76 0 -132 -59.5 t-84 -158t-40 -199.5t-12 -210zM256 188q68 -125 178 -125q78 0 133.5 59.5t83 159t39.5 200t12 208.5q0 258 -53 428l-4 2z" />
<glyph unicode="&#xd9;" horiz-adv-x="882" d="M127 420v960h88v-942q0 -375 223 -375q229 0 230 375v942h88v-931q0 -250 -90.5 -357.5t-231.5 -107.5q-135 0 -221 100t-86 336zM160 1669h133l209 -215h-84z" />
<glyph unicode="&#xda;" horiz-adv-x="882" d="M127 420v960h88v-942q0 -375 223 -375q229 0 230 375v942h88v-931q0 -250 -90.5 -357.5t-231.5 -107.5q-135 0 -221 100t-86 336zM379 1454l209 215h133l-258 -215h-84z" />
<glyph unicode="&#xdb;" horiz-adv-x="882" d="M127 420v960h88v-942q0 -375 223 -375q229 0 230 375v942h88v-931q0 -250 -90.5 -357.5t-231.5 -107.5q-135 0 -221 100t-86 336zM215 1454l182 184h90l183 -184h-103l-123 117h-4l-123 -117h-102z" />
<glyph unicode="&#xdc;" horiz-adv-x="882" d="M127 420v960h88v-942q0 -375 223 -375q229 0 230 375v942h88v-931q0 -250 -90.5 -357.5t-231.5 -107.5q-135 0 -221 100t-86 336zM223 1571q0 33 18.5 53.5t49.5 20.5q68 0 67.5 -74t-67.5 -74h-2q-66 0 -66 74zM526 1571q0 33 18.5 53.5t49.5 20.5q68 0 68 -74t-68 -74 h-2q-66 0 -66 74z" />
<glyph unicode="&#xdd;" horiz-adv-x="796" d="M51 1380h94l140 -356q92 -238 121 -324h4q23 72 122 330l140 350h94l-322 -757v-623h-88v618zM338 1454l209 215h133l-258 -215h-84z" />
<glyph unicode="&#xde;" horiz-adv-x="739" d="M127 0v1380h88v-295q53 8 115 9q168 0 262 -101q86 -96 86 -252q0 -178 -106.5 -281.5t-276.5 -103.5q-31 0 -80 9v-365h-88zM215 440q41 -8 80 -8q135 0 213 79t78 226q0 281 -277 281q-57 0 -94 -6v-572z" />
<glyph unicode="&#xdf;" horiz-adv-x="800" d="M121 0v944q0 301 125 416q80 74 196 74q41 0 83 -14.5t84 -46.5t67.5 -94t25.5 -146q0 -94 -51 -177q-72 -25 -113.5 -71.5t-41.5 -110.5q0 -37 16 -74.5t33.5 -61.5t54.5 -67q70 -78 104.5 -146.5t34.5 -152.5q0 -139 -88 -213.5t-211 -74.5q-98 0 -153 32l24 74 q51 -29 138 -29q92 0 147 55.5t55 143.5q0 117 -119 252q-82 96 -102 147q-18 49 -18 105q0 174 180 250q23 47 22 102q0 137 -60 188.5t-130 51.5q-215 0 -215 -441v-915h-88z" />
<glyph unicode="&#xe0;" horiz-adv-x="671" d="M61 254q0 170 112 259t290 91v37q0 141 -35 211t-135 70q-76 0 -139 -48l-25 68q66 57 182 57q240 0 240 -313v-465q0 -160 8 -221h-82l-8 109h-6q-61 -125 -184 -125q-92 0 -155 73.5t-63 196.5zM92 1386h117l168 -270h-66zM154 260q0 -102 39.5 -150.5t97.5 -48.5 q63 0 108 49.5t60 137.5q4 23 4 63v217q-309 0 -309 -268z" />
<glyph unicode="&#xe1;" horiz-adv-x="671" d="M61 254q0 170 112 259t290 91v37q0 141 -35 211t-135 70q-76 0 -139 -48l-25 68q66 57 182 57q240 0 240 -313v-465q0 -160 8 -221h-82l-8 109h-6q-61 -125 -184 -125q-92 0 -155 73.5t-63 196.5zM154 260q0 -102 39.5 -150.5t97.5 -48.5q63 0 108 49.5t60 137.5 q4 23 4 63v217q-309 0 -309 -268zM264 1116l168 270h117l-219 -270h-66z" />
<glyph unicode="&#xe2;" horiz-adv-x="671" d="M61 254q0 170 112 259t290 91v37q0 141 -35 211t-135 70q-76 0 -139 -48l-25 68q66 57 182 57q240 0 240 -313v-465q0 -160 8 -221h-82l-8 109h-6q-61 -125 -184 -125q-92 0 -155 73.5t-63 196.5zM145 1116l154 270h57l154 -270h-78l-102 187h-4l-103 -187h-78zM154 260 q0 -102 39.5 -150.5t97.5 -48.5q63 0 108 49.5t60 137.5q4 23 4 63v217q-309 0 -309 -268z" />
<glyph unicode="&#xe3;" horiz-adv-x="671" d="M61 254q0 170 112 259t290 91v37q0 141 -35 211t-135 70q-76 0 -139 -48l-25 68q66 57 182 57q240 0 240 -313v-465q0 -160 8 -221h-82l-8 109h-6q-61 -125 -184 -125q-92 0 -155 73.5t-63 196.5zM131 1153q-2 72 28.5 118t86.5 46q33 0 90 -35q61 -37 84 -37q49 0 55 74 h64q0 -154 -121 -154q-41 0 -94 37q-57 35 -76 35q-41 0 -51 -84h-66zM154 260q0 -102 39.5 -150.5t97.5 -48.5q63 0 108 49.5t60 137.5q4 23 4 63v217q-309 0 -309 -268z" />
<glyph unicode="&#xe4;" horiz-adv-x="671" d="M61 254q0 170 112 259t290 91v37q0 141 -35 211t-135 70q-76 0 -139 -48l-25 68q66 57 182 57q240 0 240 -313v-465q0 -160 8 -221h-82l-8 109h-6q-61 -125 -184 -125q-92 0 -155 73.5t-63 196.5zM121 1233q0 29 20.5 48t51.5 19q29 0 47 -19t18 -48t-19.5 -48.5 t-45.5 -19.5h-3q-29 0 -49 19.5t-20 48.5zM154 260q0 -102 39.5 -150.5t97.5 -48.5q63 0 108 49.5t60 137.5q4 23 4 63v217q-309 0 -309 -268zM412 1233q0 29 20.5 48t50.5 19q29 0 47.5 -19t18.5 -48t-19.5 -48.5t-46.5 -19.5h-2q-29 0 -49 19.5t-20 48.5z" />
<glyph unicode="&#xe5;" horiz-adv-x="671" d="M61 254q0 170 112 259t290 91v37q0 141 -35 211t-135 70q-76 0 -139 -48l-25 68q66 57 182 57q240 0 240 -313v-465q0 -160 8 -221h-82l-8 109h-6q-61 -125 -184 -125q-92 0 -155 73.5t-63 196.5zM152 1253q0 74 50 125.5t128 51.5h2q74 0 124 -51.5t50 -125.5 q0 -72 -52.5 -121t-123.5 -49q-76 0 -127 49t-51 121zM154 260q0 -102 39.5 -150.5t97.5 -48.5q63 0 108 49.5t60 137.5q4 23 4 63v217q-309 0 -309 -268zM227 1253q0 -43 30 -75.5t73 -32.5q45 0 74.5 31.5t29.5 80.5q0 47 -29.5 79t-74.5 32h-2q-45 0 -73 -34t-28 -81z " />
<glyph unicode="&#xe6;" horiz-adv-x="1056" d="M61 254q0 168 113 258t295 90v70q0 250 -172 250q-76 0 -145 -50l-27 66q80 61 190 61q78 0 136.5 -46t72.5 -144h4q27 88 88.5 139t135.5 51q70 0 120 -38.5t76.5 -104t37.5 -132.5t11 -138v-58h-448q0 -137 17.5 -231t52 -144.5t74.5 -71t95 -20.5q86 0 158 45l23 -67 q-76 -55 -203 -55q-84 0 -154.5 54t-91.5 146h-4q-23 -90 -84 -145t-147 -55q-96 0 -160 73.5t-64 196.5zM152 264q0 -102 42 -152.5t103 -50.5t107.5 50.5t60.5 136.5q4 23 4 61v219q-317 0 -317 -264zM553 602h350q6 162 -45 241t-115 79q-84 0 -135 -92.5t-55 -227.5z " />
<glyph unicode="&#xe7;" horiz-adv-x="589" d="M72 489q0 213 93 361.5t257 148.5q82 0 135 -34l-29 -78q-55 33 -120 33q-84 0 -141.5 -68t-80 -163t-22.5 -206q0 -197 67.5 -307t184.5 -110q72 0 125 32l24 -67q-66 -39 -153 -43l-52 -99q53 -6 92.5 -46t39.5 -97q0 -74 -49.5 -113t-112.5 -39q-66 0 -125 39l28 66 q45 -31 99 -31q80 0 80 70q0 82 -142 98l72 158q-125 25 -197.5 151.5t-72.5 343.5z" />
<glyph unicode="&#xe8;" horiz-adv-x="671" d="M72 487q0 233 78.5 372.5t214.5 139.5q70 0 121 -38.5t76.5 -103t37.5 -132.5t12 -139v-58h-450q0 -463 248 -462q90 0 147 38l21 -67q-70 -49 -185 -49q-158 0 -239.5 135t-81.5 364zM129 1386h117l168 -270h-66zM164 600h354q2 164 -50 243t-118 79q-80 0 -129 -95.5 t-57 -226.5z" />
<glyph unicode="&#xe9;" horiz-adv-x="671" d="M72 487q0 233 78.5 372.5t214.5 139.5q70 0 121 -38.5t76.5 -103t37.5 -132.5t12 -139v-58h-450q0 -463 248 -462q90 0 147 38l21 -67q-70 -49 -185 -49q-158 0 -239.5 135t-81.5 364zM164 600h354q2 164 -50 243t-118 79q-80 0 -129 -95.5t-57 -226.5zM297 1116l168 270 h117l-220 -270h-65z" />
<glyph unicode="&#xea;" horiz-adv-x="671" d="M72 487q0 233 78.5 372.5t214.5 139.5q70 0 121 -38.5t76.5 -103t37.5 -132.5t12 -139v-58h-450q0 -463 248 -462q90 0 147 38l21 -67q-70 -49 -185 -49q-158 0 -239.5 135t-81.5 364zM164 600h354q2 164 -50 243t-118 79q-80 0 -129 -95.5t-57 -226.5zM178 1116l154 270 h57l154 -270h-78l-103 187h-4l-102 -187h-78z" />
<glyph unicode="&#xeb;" horiz-adv-x="671" d="M72 487q0 233 78.5 372.5t214.5 139.5q70 0 121 -38.5t76.5 -103t37.5 -132.5t12 -139v-58h-450q0 -463 248 -462q90 0 147 38l21 -67q-70 -49 -185 -49q-158 0 -239.5 135t-81.5 364zM150 1233q0 29 20 48t51 19q29 0 47.5 -19t18.5 -48t-19.5 -48.5t-46.5 -19.5h-2 q-29 0 -49 19.5t-20 48.5zM164 600h354q2 164 -50 243t-118 79q-80 0 -129 -95.5t-57 -226.5zM440 1233q0 29 20.5 48t51.5 19q29 0 47.5 -19t18.5 -48t-19.5 -48.5t-46.5 -19.5h-2q-29 0 -49.5 19.5t-20.5 48.5z" />
<glyph unicode="&#xec;" horiz-adv-x="329" d="M-66 1386h117l168 -270h-65zM121 0v983h88v-983h-88z" />
<glyph unicode="&#xed;" horiz-adv-x="329" d="M94 1116l168 270h117l-219 -270h-66zM121 0v983h88v-983h-88z" />
<glyph unicode="&#xee;" horiz-adv-x="329" d="M-16 1116l153 270h58l153 -270h-78l-102 187h-4l-103 -187h-77zM121 0v983h88v-983h-88z" />
<glyph unicode="&#xef;" horiz-adv-x="329" d="M-49 1233q0 29 20.5 48t51.5 19q29 0 47 -19t18 -48t-19.5 -48.5t-45.5 -19.5h-3q-29 0 -49 19.5t-20 48.5zM121 0v983h88v-983h-88zM242 1233q0 29 20.5 48t50.5 19q29 0 47.5 -19t18.5 -48t-19.5 -48.5t-46.5 -19.5h-2q-29 0 -49 19.5t-20 48.5z" />
<glyph unicode="&#xf0;" horiz-adv-x="716" d="M72 492q0 248 84 377.5t200 129.5q61 0 107 -38l4 4q-29 66 -125 190l-188 -111l-29 56l176 104q-6 8 -160 178l56 52q133 -141 170 -189l184 111l33 -56l-176 -106q102 -131 157 -258q80 -188 80 -444q2 -250 -84 -379t-209 -129q-117 0 -198.5 128t-81.5 380z M164 493.5q0 -69.5 7 -135t26.5 -137t60.5 -116t100 -44.5h2q57 0 98.5 43t60 113t26.5 134.5t8 129.5q0 231 -37 336q-35 104 -156 105q-59 0 -101 -43t-61.5 -115t-26.5 -136.5t-7 -134z" />
<glyph unicode="&#xf1;" horiz-adv-x="761" d="M113 983h80l4 -121h4q63 137 217 137q92 0 157.5 -73.5t65.5 -245.5v-680h-88v645q0 279 -162 279q-63 0 -113.5 -54.5t-64.5 -150.5q-4 -27 -4 -86v-633h-88v756q0 72 -4 144.5t-4 82.5zM176 1153q-2 72 29 118t86 46q33 0 90 -35q61 -37 84 -37q49 0 55 74h64 q0 -154 -121 -154q-41 0 -94 37q-57 35 -76 35q-41 0 -51 -84h-66z" />
<glyph unicode="&#xf2;" horiz-adv-x="724" d="M72 491.5q0 253.5 86 380.5t213 127q117 0 199.5 -127t82.5 -380.5t-85 -380.5t-210 -127h-2q-117 0 -200.5 127t-83.5 380.5zM150 1386h116l168 -270h-65zM164 491.5q0 -69.5 8 -136t27.5 -137.5t61.5 -114t101 -43h3q59 0 100 43t60.5 114t27.5 137.5t8 136t-8 136 t-27.5 137.5t-62.5 114t-102.5 43t-100.5 -43t-60.5 -114t-27.5 -137.5t-8 -136z" />
<glyph unicode="&#xf3;" horiz-adv-x="724" d="M72 491.5q0 253.5 86 380.5t213 127q117 0 199.5 -127t82.5 -380.5t-85 -380.5t-210 -127h-2q-117 0 -200.5 127t-83.5 380.5zM164 491.5q0 -69.5 8 -136t27.5 -137.5t61.5 -114t101 -43h3q59 0 100 43t60.5 114t27.5 137.5t8 136t-8 136t-27.5 137.5t-62.5 114 t-102.5 43t-100.5 -43t-60.5 -114t-27.5 -137.5t-8 -136zM291 1116l168 270h116l-219 -270h-65z" />
<glyph unicode="&#xf4;" horiz-adv-x="724" d="M72 491.5q0 253.5 86 380.5t213 127q117 0 199.5 -127t82.5 -380.5t-85 -380.5t-210 -127h-2q-117 0 -200.5 127t-83.5 380.5zM164 491.5q0 -69.5 8 -136t27.5 -137.5t61.5 -114t101 -43h3q59 0 100 43t60.5 114t27.5 137.5t8 136t-8 136t-27.5 137.5t-62.5 114 t-102.5 43t-100.5 -43t-60.5 -114t-27.5 -137.5t-8 -136zM180 1116l154 270h57l154 -270h-78l-102 187h-5l-102 -187h-78z" />
<glyph unicode="&#xf5;" horiz-adv-x="724" d="M72 491.5q0 253.5 86 380.5t213 127q117 0 199.5 -127t82.5 -380.5t-85 -380.5t-210 -127h-2q-117 0 -200.5 127t-83.5 380.5zM158 1153q-2 72 28.5 118t85.5 46q33 0 90 -35q61 -37 84 -37q49 0 56 74h63q0 -154 -121 -154q-41 0 -94 37q-57 35 -76 35q-41 0 -51 -84 h-65zM164 491.5q0 -69.5 8 -136t27.5 -137.5t61.5 -114t101 -43h3q59 0 100 43t60.5 114t27.5 137.5t8 136t-8 136t-27.5 137.5t-62.5 114t-102.5 43t-100.5 -43t-60.5 -114t-27.5 -137.5t-8 -136z" />
<glyph unicode="&#xf6;" horiz-adv-x="724" d="M72 491.5q0 253.5 86 380.5t213 127q117 0 199.5 -127t82.5 -380.5t-85 -380.5t-210 -127h-2q-117 0 -200.5 127t-83.5 380.5zM147 1233q0 29 20.5 48t51.5 19q29 0 47.5 -19t18.5 -48t-19.5 -48.5t-46.5 -19.5h-2q-29 0 -49.5 19.5t-20.5 48.5zM164 491.5 q0 -69.5 8 -136t27.5 -137.5t61.5 -114t101 -43h3q59 0 100 43t60.5 114t27.5 137.5t8 136t-8 136t-27.5 137.5t-62.5 114t-102.5 43t-100.5 -43t-60.5 -114t-27.5 -137.5t-8 -136zM438 1233q0 29 20.5 48t51.5 19q29 0 47 -19t18 -48t-19 -48.5t-46 -19.5h-2 q-29 0 -49.5 19.5t-20.5 48.5z" />
<glyph unicode="&#xf7;" horiz-adv-x="1220" d="M82 508v78h1057v-78h-1057zM537 178q0 35 20.5 56.5t52.5 21.5q35 0 54.5 -21.5t19.5 -56.5t-19.5 -55.5t-54.5 -20.5h-2q-33 0 -52 20.5t-19 55.5zM537 913.5q0 34.5 20.5 56t52.5 21.5q35 0 54.5 -21.5t19.5 -56t-19.5 -55t-54.5 -20.5h-2q-33 0 -52 20.5t-19 55z" />
<glyph unicode="&#xf8;" horiz-adv-x="724" d="M72 492q0 254 85 380.5t205 126.5h3q86 0 155 -67l45 102l64 -30l-60 -136q84 -131 84 -376q0 -254 -85 -381t-206 -127q-84 0 -153 63l-45 -104l-60 37l56 126q-88 138 -88 386zM164 492q0 -162 39 -287l2 -2l278 645q-31 74 -121 74q-61 0 -103 -43t-61.5 -115 t-26.5 -136t-7 -136zM246 129q41 -68 116 -68q61 0 103.5 43t62 115t26.5 136.5t7 136.5q0 160 -35 278l-2 2z" />
<glyph unicode="&#xf9;" horiz-adv-x="745" d="M119 346v637h88v-618q0 -145 31.5 -225.5t121.5 -80.5q82 0 126 57.5t51 114.5q4 31 4 91v661h88v-735q0 -2 8 -248h-80l-8 102h-4q-23 -41 -76 -79.5t-125 -38.5q-225 0 -225 362zM160 1386h116l168 -270h-65z" />
<glyph unicode="&#xfa;" horiz-adv-x="745" d="M119 346v637h88v-618q0 -145 31.5 -225.5t121.5 -80.5q82 0 126 57.5t51 114.5q4 31 4 91v661h88v-735q0 -2 8 -248h-80l-8 102h-4q-23 -41 -76 -79.5t-125 -38.5q-225 0 -225 362zM326 1116l168 270h116l-219 -270h-65z" />
<glyph unicode="&#xfb;" horiz-adv-x="745" d="M119 346v637h88v-618q0 -145 31.5 -225.5t121.5 -80.5q82 0 126 57.5t51 114.5q4 31 4 91v661h88v-735q0 -2 8 -248h-80l-8 102h-4q-23 -41 -76 -79.5t-125 -38.5q-225 0 -225 362zM190 1116l154 270h57l154 -270h-78l-102 187h-4l-103 -187h-78z" />
<glyph unicode="&#xfc;" horiz-adv-x="745" d="M119 346v637h88v-618q0 -145 31.5 -225.5t121.5 -80.5q82 0 126 57.5t51 114.5q4 31 4 91v661h88v-735q0 -2 8 -248h-80l-8 102h-4q-23 -41 -76 -79.5t-125 -38.5q-225 0 -225 362zM164 1233q0 29 20.5 48t51.5 19q29 0 47 -19t18 -48t-19.5 -48.5t-45.5 -19.5h-3 q-29 0 -49 19.5t-20 48.5zM455 1233q0 29 20.5 48t50.5 19q29 0 47.5 -19t18.5 -48t-19.5 -48.5t-46.5 -19.5h-2q-29 0 -49 19.5t-20 48.5z" />
<glyph unicode="&#xfd;" horiz-adv-x="651" d="M27 -358q76 49 145 149q63 94 92 197q10 37 10 53q0 25 -4 37l-233 905h90l152 -598q12 -49 27.5 -124t21.5 -103h4q6 33 25.5 112.5t27.5 114.5l139 598h90l-135 -551q-66 -270 -122 -439t-138 -280q-74 -100 -147 -145zM270 1116l168 270h117l-219 -270h-66z" />
<glyph unicode="&#xfe;" horiz-adv-x="755" d="M119 -393v1747h88v-492h4q66 137 209 137q109 0 186.5 -128t77.5 -375q0 -258 -87 -385t-204 -127q-127 0 -182 120h-4v-497h-88zM207 358q0 -51 4 -75q25 -127 77 -174.5t105 -47.5q199 0 199 431q0 117 -18.5 210t-65.5 156.5t-119 63.5q-68 0 -121 -74t-59 -168 q-2 -27 -2 -78v-244z" />
<glyph unicode="&#xff;" horiz-adv-x="651" d="M27 -358q76 49 145 149q63 94 92 197q10 37 10 53q0 25 -4 37l-233 905h90l152 -598q12 -49 27.5 -124t21.5 -103h4q6 33 25.5 112.5t27.5 114.5l139 598h90l-135 -551q-66 -270 -122 -439t-138 -280q-74 -100 -147 -145zM119 1233q0 29 20.5 48t50.5 19q29 0 47.5 -19 t18.5 -48t-19.5 -48.5t-46.5 -19.5h-2q-29 0 -49 19.5t-20 48.5zM410 1233q0 29 20.5 48t50.5 19q29 0 47.5 -19t18.5 -48t-19.5 -48.5t-46.5 -19.5h-2q-29 0 -49 19.5t-20 48.5z" />
<glyph unicode="&#x152;" horiz-adv-x="1198" d="M74 678q0 197 42 342t113.5 224t150.5 116t167 37q39 0 71 -6q10 -2 35 -5.5t35 -5.5h442v-77h-391v-539h365v-78h-365v-608h418v-78h-485q-12 -2 -37 -5t-37 -5q-41 -6 -72 -6q-119 0 -209 55t-142 152.5t-76.5 219.5t-24.5 267zM166 688q0 -176 31.5 -304t87 -194.5 t117 -96.5t135.5 -30q80 0 114 17v1212q-43 25 -127 25q-137 0 -247.5 -151.5t-110.5 -477.5z" />
<glyph unicode="&#x153;" horiz-adv-x="1175" d="M72 492q0 250 88 378.5t217 128.5q86 0 155.5 -57t92.5 -166h4q29 102 93 162.5t150 60.5q68 0 118 -39.5t76 -103t38 -132.5t12 -138v-58h-448q0 -266 62.5 -366.5t176.5 -100.5q57 0 160 43l23 -67q-78 -53 -211 -53q-86 0 -158 61t-96 170h-4q-25 -115 -92.5 -173 t-155.5 -58q-129 0 -215 128t-86 380zM164 491.5q0 -69.5 8 -134t28.5 -136t66.5 -116t112 -44.5q63 0 107 41t64.5 111t29 136.5t8.5 142t-8.5 142t-29 136.5t-65.5 111t-108 41h-2q-63 0 -108.5 -44t-66 -116t-28.5 -136.5t-8 -134zM670 604h352q6 160 -46 239t-116 79 q-82 0 -133 -93.5t-57 -224.5z" />
<glyph unicode="&#x178;" horiz-adv-x="796" d="M51 1380h94l140 -356q92 -238 121 -324h4q23 72 122 330l140 350h94l-322 -757v-623h-88v618zM197 1550q0 33 18 53.5t49 20.5q68 0 68 -73.5t-68 -73.5h-2q-65 -1 -65 73zM500 1550q0 33 18.5 53.5t48.5 20.5q68 0 68 -73.5t-68 -73.5h-2q-65 -1 -65 73z" />
<glyph unicode="&#x2c6;" horiz-adv-x="614" d="M125 1116l154 270h57l153 -270h-77l-103 187h-4l-102 -187h-78z" />
<glyph unicode="&#x2dc;" horiz-adv-x="614" d="M102 1153q-2 72 29 118t86 46q33 0 90 -35q61 -37 84 -37q49 0 55 74h64q0 -154 -121 -154q-41 0 -94 37q-57 35 -76 35q-41 0 -51 -84h-66z" />
<glyph unicode="&#x2000;" horiz-adv-x="882" />
<glyph unicode="&#x2001;" horiz-adv-x="1767" />
<glyph unicode="&#x2002;" horiz-adv-x="882" />
<glyph unicode="&#x2003;" horiz-adv-x="1767" />
<glyph unicode="&#x2004;" horiz-adv-x="587" />
<glyph unicode="&#x2005;" horiz-adv-x="440" />
<glyph unicode="&#x2006;" horiz-adv-x="292" />
<glyph unicode="&#x2007;" horiz-adv-x="292" />
<glyph unicode="&#x2008;" horiz-adv-x="219" />
<glyph unicode="&#x2009;" horiz-adv-x="352" />
<glyph unicode="&#x200a;" horiz-adv-x="96" />
<glyph unicode="&#x2010;" horiz-adv-x="595" d="M61 477v78h474v-78h-474z" />
<glyph unicode="&#x2011;" horiz-adv-x="595" d="M61 477v78h474v-78h-474z" />
<glyph unicode="&#x2012;" horiz-adv-x="595" d="M61 477v78h474v-78h-474z" />
<glyph unicode="&#x2013;" horiz-adv-x="1024" d="M61 498v69h902v-69h-902z" />
<glyph unicode="&#x2014;" horiz-adv-x="2048" d="M61 498v69h1926v-69h-1926z" />
<glyph unicode="&#x2018;" horiz-adv-x="346" d="M61 944q27 109 79.5 253t78.5 192l66 10q-25 -66 -58.5 -203t-48.5 -231z" />
<glyph unicode="&#x2019;" horiz-adv-x="346" d="M61 946q25 66 59 203t48 231l117 21q-27 -109 -79 -253t-79 -192z" />
<glyph unicode="&#x201a;" horiz-adv-x="346" d="M61 -258q25 66 59 203t48 231l117 21q-27 -109 -79 -253.5t-79 -191.5z" />
<glyph unicode="&#x201c;" horiz-adv-x="589" d="M61 944q27 109 79.5 253t78.5 192l66 10q-25 -66 -58.5 -203t-48.5 -231zM305 944q27 109 79 253t79 192l65 10q-25 -66 -58.5 -203t-47.5 -231z" />
<glyph unicode="&#x201d;" horiz-adv-x="589" d="M61 946q25 66 59 203t48 231l117 21q-27 -109 -79 -253t-79 -192zM305 946q25 66 58.5 203t48.5 231l116 21q-27 -109 -79 -253t-78 -192z" />
<glyph unicode="&#x201e;" horiz-adv-x="589" d="M61 -258q25 66 59 203t48 231l117 21q-27 -109 -79 -253.5t-79 -191.5zM305 -258q25 66 58.5 203t48.5 231l116 21q-27 -109 -79 -253.5t-78 -191.5z" />
<glyph unicode="&#x2022;" horiz-adv-x="489" d="M61 518q-2 76 52.5 129t130 53t130 -53t54.5 -129t-54.5 -129t-129.5 -53h-2q-74 0 -127.5 53t-53.5 129z" />
<glyph unicode="&#x2026;" horiz-adv-x="2048" d="M270 65.5q0 36.5 19.5 60.5t52.5 24q72 0 72 -84q0 -82 -72 -82h-2q-31 0 -50.5 22.5t-19.5 59zM952 65.5q0 36.5 19.5 60.5t52.5 24q72 0 72 -84q0 -82 -72 -82h-2q-31 0 -50.5 22.5t-19.5 59zM1634 65.5q0 36.5 19.5 60.5t52.5 24q72 0 72 -84q0 -82 -72 -82h-2 q-31 0 -50.5 22.5t-19.5 59z" />
<glyph unicode="&#x202f;" horiz-adv-x="352" />
<glyph unicode="&#x2039;" horiz-adv-x="417" d="M61 516l209 344h86l-206 -344l206 -344h-90z" />
<glyph unicode="&#x203a;" horiz-adv-x="417" d="M61 172l207 344l-207 344h86l209 -344l-204 -344h-91z" />
<glyph unicode="&#x205f;" horiz-adv-x="440" />
<glyph unicode="&#x20ac;" d="M27 539v71h92v33q0 70 2 96h-94v72h100q31 293 170 436q100 100 233 101q90 0 166 -54l-30 -71q-53 45 -142 45q-100 0 -172 -74q-111 -113 -135 -383h367v-72h-373q-2 -20 -2 -80v-49h375v-71h-371q16 -242 98 -361q80 -115 217 -115q86 0 162 50l27 -66 q-86 -63 -199 -63q-160 0 -260 122q-115 137 -135 433h-96z" />
<glyph unicode="&#x2122;" horiz-adv-x="1003" d="M51 1321v59h350v-59h-143v-498h-63v498h-144zM432 823l35 557h98l94 -344q6 -23 16.5 -62.5t14.5 -53.5h2q4 16 14.5 56t14.5 56l94 348h98l39 -557h-67l-21 379q-2 43 -6 119h-2q-6 -16 -17.5 -64.5t-17.5 -68.5l-94 -357h-76l-96 367q-14 57 -33 123h-2q0 -33 -4 -119 l-20 -379h-64z" />
<glyph unicode="&#xe000;" horiz-adv-x="985" d="M0 985h985v-985h-985v985z" />
<glyph unicode="&#xfb01;" horiz-adv-x="765" d="M27 907v76h118v74q0 168 76 272.5t234 104.5q111 0 166 -52l-33 -69q-70 43 -148 43q-119 0 -163 -80t-44 -234v-59h412v-983h-88v907h-324v-907h-88v907h-118z" />
<glyph unicode="&#xfb02;" horiz-adv-x="765" d="M27 907v76h118v64q0 209 105 311q80 76 209 76q109 0 188 -50v-1384h-88v1329q-53 27 -123 27q-203 0 -203 -301v-72h187v-76h-187v-907h-88v907h-118z" />
<glyph unicode="&#xfb03;" horiz-adv-x="1193" d="M27 907v76h118v51q0 190 82 289q76 88 199 88q72 0 127 -35l-31 -71q-53 29 -104 28q-88 0 -133 -67q-51 -74 -52 -232v-51h340v74q0 168 76 272.5t234 104.5q111 0 166 -52l-33 -69q-70 43 -148 43q-119 0 -162.5 -80t-43.5 -234v-59h411v-983h-88v907h-323v-907h-89 v907h-340v-907h-88v907h-118z" />
<glyph unicode="&#xfb04;" horiz-adv-x="1193" d="M27 907v76h118v51q0 190 82 289q76 88 199 88q72 0 127 -35l-31 -71q-53 29 -104 28q-88 0 -133 -67q-51 -74 -52 -232v-51h340v64q0 209 105 311q80 76 209 76q109 0 188 -50v-1384h-88v1329q-53 27 -123 27q-203 0 -202 -301v-72h186v-76h-186v-907h-89v907h-340v-907 h-88v907h-118z" />
</font>
</defs>
</svg>
